img image001 image001 image001 image001 image001 image001 image001 image001 image001 image001 image001 image001 image001 image001 image001

Planets Sun Sun Sun
Статистика раздачи
Автор: PriZraK | Размер: 743.92 МБ | Добавлен: 15 фев 2014
Раздают: 70    Качают: 4
Скачать торрент
Скачать торрент
Описание торрента

СообщениеДобавлено: 15 фев 2014 


#77
Страна: СССР
Производство: Студия Горького

Жанр: приключения, боевик
Год выпуска: 1981
Продолжительность: 1:12:53

Перевод: не требуется
Оригинальная аудиодорожка: русский
Cубтитры: нет

Режиссер: Владимир Саруханов

В ролях:
Саттар Дикамбаев, Иногам Адылов, Айтурган Темирова, Юрий Назаров, Ульмас Алиходжаев, Георгий Назаренко, Анатолий Игнатьев, Владимир Смирнов, Владимир Федоров, Нина Саруханова...


Гражданская война окончена, и на земле Хакасии налаживается новая жизнь. Однако все еще дают знать о себе остатки недобитых банд, скрывающихся в тайге и наводящих ужас на испуганных местных жителей. Красноармеец Сыгды Кирбижеков получает задание проникнуть в одну из банд и «разоружить» ее изнутри...





Исходник: DVD5 R5
Тип релиза: DVDRip
Контейнер: AVI

Видео: 696x528 (4:3), 25 fps, XviD ~ 1289 kbps avg, 0.142 bit/pixel
Аудио: 48 kHz, MP3 2.0, 128 kbps

Раздача от:
Общее
Полное имя : Ne.stavte.Leshemu.kapkany.1981.DVDRip-745_[New-team]_by_AVP_Studio.avi
Формат : AVI
Формат/Информация : Audio Video Interleave
Размер файла : 744 Мбайт
Продолжительность : 1 ч. 12 м.
Общий поток : 1427 Кбит/сек
Программа кодирования : VirtualDubModRus 1.5.10.2 (build 2542/release)
Библиотека кодирования : VirtualDubMod build 2542/release

Видео
Идентификатор : 0
Формат : MPEG-4 Visual
Профиль формата : Advanced Simple@L5
Параметр BVOP формата : 1
Параметр QPel формата : Нет
Параметр GMC формата : Без точки перехода
Параметр матрицы формата : Выборочная
Идентификатор кодека : XVID
Идентификатор кодека/Подсказка : XviD
Продолжительность : 1 ч. 12 м.
Битрейт : 1289 Кбит/сек
Ширина : 688 пикселей
Высота : 528 пикселей
Соотношение сторон : 4:3
Частота кадров : 25,000 кадров/сек
Цветовое пространство : YUV
Субдискретизация насыщенности : 4:2:0
Битовая глубина : 8 бит
Тип развёртки : Прогрессивная
Метод сжатия : С потерями
Бит/(Пиксели*Кадры) : 0.142
Размер потока : 672 Мбайт (90%)
Библиотека кодирования : XviD 73

Аудио
Идентификатор : 1
Формат : MPEG Audio
Версия формата : Version 1
Профиль формата : Layer 3
Идентификатор кодека : 55
Идентификатор кодека/Подсказка : MP3
Продолжительность : 1 ч. 12 м.
Вид битрейта : Постоянный
Битрейт : 128 Кбит/сек
Каналы : 2 канала
Частота : 48,0 КГц
Метод сжатия : С потерями
Размер потока : 66,7 Мбайт (9%)
Выравнивание : Соединение по промежуткам
Продолжительность промежутка : 40 мс. (1,00 видеокадр)
Время предзагрузки промежутка : 504 мс.
Библиотека кодирования : LAME3.99r
Настройки программы : -m s -V 4 -q 2 -lowpass 17 -b 128





   Похожие торренты   Торрент   Размер 
В этой теме нет новых непрочитанных сообщений. Не ставьте Лешему капканы... (1981) DVDRip от New-Team

4 | 3

1.09 ГБ

В этой теме нет новых непрочитанных сообщений. Не ставьте Лешему капканы... (1981) DVDRip-AVC от New-Team

15 | 5

1.09 ГБ

В этой теме нет новых непрочитанных сообщений. Не ставьте Лешему капканы... (1981) DVDRip от Киномагия

0 | 2

999.34 МБ

В этой теме нет новых непрочитанных сообщений. Всё наоборот (1981) DVDRip от New-Team

13 | 4

744.87 МБ

В этой теме нет новых непрочитанных сообщений. Шестой (1981) DVDRip-AVC от New-Team

81 | 7

1.46 ГБ

В этой теме нет новых непрочитанных сообщений. Туз / Asso (1981) DVDRip-AVC от New-Team

59 | 9

1.46 ГБ

В этой теме нет новых непрочитанных сообщений. Туз / Asso (1981) DVDRip от New-Team

9 | 4

744.03 МБ




Вы не можете начинать темы
Вы не можете отвечать на сообщения
Вы не можете редактировать свои сообщения
Вы не можете удалять свои сообщения
Вы не можете добавлять вложения

Перейти:  
Для Мосгорсуда, Роскомнадзора и рекламодателей: mosgorsud-torrent[собачка]yandex.ru
 Вход
ppkBB3cker v.2 © 2008-2014 @ PPK
[ Time : 0.088s | 18 Queries | GZIP : Off ]

cron