img image001 image001 image001 image001 image001 image001 image001 image001 image001 image001 image001 image001 image001 image001 image001

Planets Sun Sun Sun
Статистика раздачи
Автор: PriZraK | Размер: 1.47 ГБ | Добавлен: 15 фев 2014
Раздают: 94    Качают: 14
Скачать торрент
Скачать торрент
Описание торрента

СообщениеДобавлено: 15 фев 2014 




Информация о фильме
Оригинальное название: Броненосец Потемкин
Год выхода: 1925
Жанр: Драма, исторический
Режиссер: Сергей Эйзенштейн, Григорий Александров
В ролях: Владимир Уральский, Александр Антонов, Владимир Барский, Григорий Александров, Михаил Гоморов, Марусов, Иван Бобров, Репникова, Александр Левшин, Андрей Файт
О фильме:
Созданный в 1925 году и признанный лучшим фильмом всех времен и народов, "Броненосец Потемкин" продолжает оставаться одним из самых значительных произведений отечественного и мирового киноискусства. Его сюжет, основанный на подлинном историческом событии, образно выразил основные социальные тенденции ХХ века: массовое стремление к свободе, борьбу с тиранией, защиту человеческого достоинства, призыв к единению людей во имя равноправия. Новаторская форма фильма и сегодня оказывает глубокое влияние на развитие выразительных средств кино.



Страна: СССР, 1-ая Фабрика Госкино
Продолжительность: 01:11:37
Перевод: Не требуется
Субтитры: Английские
Дата релиза: 19.12.2013

Файл
Кодек: H.264
Качество: BDRip (AVC)
Видео: MPEG-4 AVC, 2490 Кбит/с, 736x576
Звук: AC3, 6 ch, 448 Кбит/с

Общее
Уникальный идентификатор : 171246279417206172324894501199868266762 (0x80D4D56FF2D789648A1BB470C15F090A)
Полное имя : E:Bronenosets.Potyomkin.1925.x264.BDRip.(AVC).ExKinoRay.mkv
Формат : Matroska
Размер файла : 1,47 Гбайт
Продолжительность : 1 ч. 11 м.
Общий поток : 2939 Кбит/сек
Название фильма : Bronenosets.Potyomkin.1925.x264.BDRip.(AVC).ExKinoRay
Дата кодирования : UTC 2013-12-19 07:29:38
Программа кодирования : mkvmerge v4.0.0 ('The Stars were mine') сборка от Jun 6 2010 16:18:42
Библиотека кодирования : libebml v1.0.0 + libmatroska v1.0.0

Видео
Идентификатор : 1
Формат : AVC
Формат/Информация : Advanced Video Codec
Профиль формата : High@L4.1
Параметр CABAC формата : Да
Параметр ReFrames формата : 8 кадров
Идентификатор кодека : V_MPEG4/ISO/AVC
Продолжительность : 1 ч. 11 м.
Битрейт : 2490 Кбит/сек
Ширина : 736 пикс.
Высота : 576 пикс.
Соотношение сторон : 1,278
Частота кадров : 23,976 кадр/сек
Цветовое пространство : YUV
Подвыборка цветности : 4:2:0
Битовая глубина : 8 бит
Тип развёртки : Прогрессивная
Бит/(Пиксели*Кадры) : 0.245
Размер потока : 1,22 Гбайт (83%)
Заголовок : Rip by Enigma-Vladislav71
Библиотека кодирования : x264 core 125 r2208 d9d2288
Настройки программы : cabac=1 / ref=8 / deblock=1:-2:-2 / analyse=0x3:0x133 / me=umh / subme=11 / psy=1 / psy_rd=1.00:0.00 / mixed_ref=1 / me_range=48 / chroma_me=1 / trellis=2 / 8x8dct=1 / cqm=0 / deadzone=21,11 / fast_pskip=0 / chroma_qp_offset=-2 / threads=3 / lookahead_threads=1 / sliced_threads=0 / nr=0 / decimate=0 / interlaced=0 / bluray_compat=0 / constrained_intra=0 / bframes=8 / b_pyramid=2 / b_adapt=2 / b_bias=0 / direct=3 / weightb=1 / open_gop=0 / weightp=2 / keyint=240 / keyint_min=23 / scenecut=40 / intra_refresh=0 / rc=2pass / mbtree=0 / bitrate=2490 / ratetol=1.0 / qcomp=0.60 / qpmin=10 / qpmax=51 / qpstep=4 / cplxblur=20.0 / qblur=0.5 / ip_ratio=1.40 / pb_ratio=1.30 / aq=1:1.00

Аудио
Идентификатор : 2
Формат : AC-3
Формат/Информация : Audio Coding 3
Расширение режима : CM (complete main)
Идентификатор кодека : A_AC3
Продолжительность : 1 ч. 11 м.
Вид битрейта : Постоянный
Битрейт : 448 Кбит/сек
Каналы : 6 каналов
Расположение каналов : Front: L C R, Side: L R, LFE
Частота : 48,0 КГц
Битовая глубина : 16 бит
Метод сжатия : С потерями
Размер потока : 230 Мбайт (15%)

Текст
Идентификатор : 3
Формат : UTF-8
Идентификатор кодека : S_TEXT/UTF8
Идентификатор кодека/Информация : UTF-8 Plain Text
Язык : English



Релиз от:

Авторы релиза:



   Похожие торренты   Торрент   Размер 
В этой теме нет новых непрочитанных сообщений. Броненосец «Потемкин» (1925) BDRip-AVC | iPad

10 | 13

2 ГБ

В этой теме нет новых непрочитанных сообщений. Броненосец «Потемкин» (1925) BDRip (1080p) от NOLIMITS-TEAM

3 | 3

3.62 ГБ

В этой теме нет новых непрочитанных сообщений. Броненосец Потёмкин / Battleship Potemkin (1925) BDRip 1080p

71 | 7

5.4 ГБ

В этой теме нет новых непрочитанных сообщений. Броненосец Потемкин (1925) Blu-Ray

3 | 8

40.39 ГБ

В этой теме нет новых непрочитанных сообщений. Броненосец «Потемкин» / Battleship Potemkin / Bronenosets Potyomkin (1925) BDRip от HQCLUB

14 | 3

1.09 ГБ

В этой теме нет новых непрочитанных сообщений. Броненосец «Потемкин» (1925) HDTV 1080i от FreeHD

7 | 3

3.69 ГБ

В этой теме нет новых непрочитанных сообщений. Радио - Сборник 1925-2012 (1925-2012) DJVU, PDF

24 | 11

7.6 ГБ




Вы не можете начинать темы
Вы не можете отвечать на сообщения
Вы не можете редактировать свои сообщения
Вы не можете удалять свои сообщения
Вы не можете добавлять вложения

Перейти:  
Для Мосгорсуда, Роскомнадзора и рекламодателей: mosgorsud-torrent[собачка]yandex.ru
 Вход
ppkBB3cker v.2 © 2008-2014 @ PPK
[ Time : 0.638s | 15 Queries | GZIP : Off ]

Торрент трекер RUTOR.IN, Не можете зайти на rutor.org? Какой новый адрес рутор? Какое зеркало рутор? Не работает rutor.org и зеркала? Тогда наш торрент специально для вас. Rutor.in неофициальное зеркало rutor. В случае если у Вас заблокирован rutor или вдруг Вы не можете на него зайти, то Вы без труда сможете скачать бесплатно и без рекламы последние новинки кино, игр, сериалов и прочего у нас, на Rutor.in. Не нужно использовать прокси, чтобы зайти на рутор, достаточно воспользоваться нашим ресурсом. Все новые фильмы, игры, сериалы, книги и музыка за 2013 и 2014 годы через торрент бесплатно. Скачивайте фильмы в хорошем качестве, игры для пк, xbox, playstation без регистрации. У нас вы найдете новые Зарубежные сериалы и Русские сериалы 2013, 2014, 2015 годов. Оставайтесь с нами, качайте любимые фильмы, игры, сериалы, книги и музыку.
cron