img image001 image001 image001 image001 image001 image001 image001 image001 image001 image001 image001 image001 image001 image001 image001

Planets Sun Sun Sun
Статистика раздачи
Автор: PriZraK | Размер: 744.72 МБ | Добавлен: 15 фев 2014
Раздают: 7    Качают: 5
Скачать торрент
Скачать торрент
Описание торрента

СообщениеДобавлено: 15 фев 2014 


#77
Страна: СССР
Производство: Ленфильм

Жанр: криминал, детектив
Год выпуска: 1981
Продолжительность: 01:20:03

Перевод: не требуется
Оригинальная аудиодорожка: русский
Cубтитры: нет

Режиссер: Владимир Фeтин

В ролях:
Михаил Долгинин, Павел Кадочников, Ирина Богданова, Эрнст Романов, Александр Демьяненко, Сергей Иванов, Владимир Юрьев, Валерий Смоляков, Юрий Башков, Елена Андерегг...


Полковник милиции Корнилов расследует преступления, связанные с угоном автомобилей. В поле зрения следствия — убийство, причастнымк которому оказывается молодой таксист, ставший орудием в руках матерого рецидивиста...





Исходник: DVD5 R5
Тип релиза: DVDRip
Контейнер: AVI

Видео: 704x336 (2,095:1), 25 fps, XviD ~ 1099 kbps avg, 0.186 bit/pixel
Аудио: 48 kHz, Dolby AC3 2.0, 192 kbps

Раздача от:
Общее
Полное имя : Propavshie.sredi.zhivyh.1981.DVDRip_[New-team]_by_AVP_Studio.avi
Формат : AVI
Формат/Информация : Audio Video Interleave
Размер файла : 745 Мбайт
Продолжительность : 1 ч. 20 м.
Общий поток : 1301 Кбит/сек
Программа кодирования : VirtualDubModRus 1.5.10.2 (build 2542/release)
Библиотека кодирования : VirtualDubMod build 2542/release

Видео
Идентификатор : 0
Формат : MPEG-4 Visual
Профиль формата : Advanced Simple@L5
Параметр BVOP формата : 1
Параметр QPel формата : Нет
Параметр GMC формата : Без точки перехода
Параметр матрицы формата : Выборочная
Идентификатор кодека : XVID
Идентификатор кодека/Подсказка : XviD
Продолжительность : 1 ч. 20 м.
Битрейт : 1099 Кбит/сек
Ширина : 704 пикселя
Высота : 336 пикселей
Соотношение сторон : 2,095
Частота кадров : 25,000 кадров/сек
Цветовое пространство : YUV
Субдискретизация насыщенности : 4:2:0
Битовая глубина : 8 бит
Тип развёртки : Прогрессивная
Метод сжатия : С потерями
Бит/(Пиксели*Кадры) : 0.186
Размер потока : 629 Мбайт (84%)
Библиотека кодирования : XviD 73

Аудио
Идентификатор : 1
Формат : AC-3
Формат/Информация : Audio Coding 3
Расширение режима : CM (complete main)
Идентификатор кодека : 2000
Продолжительность : 1 ч. 20 м.
Вид битрейта : Постоянный
Битрейт : 192 Кбит/сек
Каналы : 2 канала
Расположение каналов : Front: L R
Частота : 48,0 КГц
Битовая глубина : 16 бит
Метод сжатия : С потерями
Размер потока : 110 Мбайт (15%)
Выравнивание : Разделение по промежуткам
Продолжительность промежутка : 40 мс. (1,00 видеокадр)
Время предзагрузки промежутка : 500 мс



Интересно, что сцены, где Евгений с подругой плавают на лодке, снимали в гатчинском парке, а где Кошмарик сидел в ресторане — в п. Выра, ресторан «У Самсона Вырина» на трассе Санкт-Петербург—Псков (Киевское шоссе, примерно 60—70 км). Ресторан и сейчас действует.



   Похожие торренты   Торрент   Размер 
В этой теме нет новых непрочитанных сообщений. Пропавшие среди живых (1981) DVDRip-AVC от New-Team

46 | 29

744.84 МБ

В этой теме нет новых непрочитанных сообщений. Девственница среди живых мертвецов / Christina, princesse de l'érotisme (1973) DVDRip от R.G. Mega Best

16 | 29

1.12 ГБ

В этой теме нет новых непрочитанных сообщений. Озеро живых мертвецов / Le lac des morts vivants (1981) DVDRip | A

78 | 32

1.37 ГБ

В этой теме нет новых непрочитанных сообщений. Пропавшие / Без вести пропавшие / Desaparecidos (2011) DVDRip | L1

18 | 2

695.78 МБ

В этой теме нет новых непрочитанных сообщений. Девственница среди живых мертвецов / La nuit des étoiles filantes (1973) BDRip | A

89 | 23

1.46 ГБ

В этой теме нет новых непрочитанных сообщений. Девственница среди живых мертвецов / La nuit des étoiles filantes (1973) BDRip 720p | A

53 | 26

4.47 ГБ

В этой теме нет новых непрочитанных сообщений. Девственница среди живых мертвецов / Кристина, принцесса эротизма / La nuit des étoiles filantes (1973) Blu-Ray Remux 1080p | A

4 | 6

16.89 ГБ




Вы не можете начинать темы
Вы не можете отвечать на сообщения
Вы не можете редактировать свои сообщения
Вы не можете удалять свои сообщения
Вы не можете добавлять вложения

Перейти:  
Для Мосгорсуда, Роскомнадзора и рекламодателей: mosgorsud-torrent[собачка]yandex.ru
 Вход
ppkBB3cker v.2 © 2008-2014 @ PPK
[ Time : 0.039s | 14 Queries | GZIP : Off ]

Торрент трекер RUTOR.IN, Не можете зайти на rutor.org? Какой новый адрес рутор? Какое зеркало рутор? Не работает rutor.org и зеркала? Тогда наш торрент специально для вас. Rutor.in неофициальное зеркало rutor. В случае если у Вас заблокирован rutor или вдруг Вы не можете на него зайти, то Вы без труда сможете скачать бесплатно и без рекламы последние новинки кино, игр, сериалов и прочего у нас, на Rutor.in. Не нужно использовать прокси, чтобы зайти на рутор, достаточно воспользоваться нашим ресурсом. Все новые фильмы, игры, сериалы, книги и музыка за 2013 и 2014 годы через торрент бесплатно. Скачивайте фильмы в хорошем качестве, игры для пк, xbox, playstation без регистрации. У нас вы найдете новые Зарубежные сериалы и Русские сериалы 2013, 2014, 2015 годов. Оставайтесь с нами, качайте любимые фильмы, игры, сериалы, книги и музыку.