img image001 image001 image001 image001 image001 image001 image001 image001 image001 image001 image001 image001 image001 image001 image001

Planets Sun Sun Sun
Статистика раздачи
Автор: PriZraK | Размер: 744.84 МБ | Добавлен: 15 фев 2014
Раздают: 46    Качают: 29
Скачать торрент
Скачать торрент
Описание торрента

СообщениеДобавлено: 15 фев 2014 


#77
Страна: СССР
Производство: Ленфильм

Жанр: криминал, детектив
Год выпуска: 1981
Продолжительность: 01:20:03

Перевод: не требуется
Оригинальная аудиодорожка: русский
Cубтитры: нет

Режиссер: Владимир Фeтин

В ролях:
Михаил Долгинин, Павел Кадочников, Ирина Богданова, Эрнст Романов, Александр Демьяненко, Сергей Иванов, Владимир Юрьев, Валерий Смоляков, Юрий Башков, Елена Андерегг...


Полковник милиции Корнилов расследует преступления, связанные с угоном автомобилей. В поле зрения следствия — убийство, причастнымк которому оказывается молодой таксист, ставший орудием в руках матерого рецидивиста...





Исходник: DVD5 R5
Тип релиза: DVDRip-AVC
Контейнер: MKV

Видео: 704->752x362 (2,075:1), 25 fps, H264 ~ 1107 kbps avg, 0.174 bit/pixel
Аудио: 48 kHz, Dolby AC3 2.0, 192 kbps

Раздача от:
Общее
Полное имя : Propavshie.sredi.zhivyh.1981.DVDRip-AVC_[New-team]_by_AVP_Studio.mkv
Формат : Matroska
Версия формата : Version 2
Размер файла : 745 Мбайт
Продолжительность : 1 ч. 20 м.
Общий поток : 1301 Кбит/сек
Дата кодирования : UTC 2013-12-19 16:14:05
Программа кодирования : mkvmerge v6.1.0 ('Old Devil') built on Mar 4 2013 09:10:42
Библиотека кодирования : libebml v1.3.0 + libmatroska v1.4.0

Видео
Идентификатор : 1
Формат : AVC
Формат/Информация : Advanced Video Codec
Профиль формата : High@L4.1
Параметр CABAC формата : Да
Параметр ReFrames формата : 6 кадров
Идентификатор кодека : V_MPEG4/ISO/AVC
Продолжительность : 1 ч. 20 м.
Битрейт : 1107 Кбит/сек
Ширина : 704 пикселя
Высота : 362 пикселя
Соотношение сторон : 2,075
Соотношение сторон в оригинале : 2,074
Частота кадров : 25,000 кадров/сек
Цветовое пространство : YUV
Субдискретизация насыщенности : 4:2:0
Битовая глубина : 8 бит
Тип развёртки : Прогрессивная
Бит/(Пиксели*Кадры) : 0.174
Размер потока : 620 Мбайт (83%)
Библиотека кодирования : x264 core 138 r2356 a1d3d17
Настройки программы : cabac=1 / ref=6 / deblock=1:-2:-1 / analyse=0x3:0x113 / me=umh / subme=10 / psy=1 / psy_rd=1.00:0.05 / mixed_ref=1 / me_range=32 / chroma_me=1 / trellis=2 / 8x8dct=1 / cqm=0 / deadzone=21,11 / fast_pskip=0 / chroma_qp_offset=-3 / threads=3 / lookahead_threads=1 / sliced_threads=0 / nr=0 / decimate=0 / interlaced=0 / bluray_compat=0 / constrained_intra=0 / bframes=8 / b_pyramid=2 / b_adapt=2 / b_bias=0 / direct=3 / weightb=1 / open_gop=0 / weightp=2 / keyint=250 / keyint_min=25 / scenecut=40 / intra_refresh=0 / rc=2pass / mbtree=0 / bitrate=1107 / ratetol=1.0 / qcomp=0.60 / qpmin=0 / qpmax=69 / qpstep=4 / cplxblur=20.0 / qblur=0.5 / ip_ratio=1.40 / pb_ratio=1.30 / aq=1:1.00
Default : Да
Forced : Нет

Аудио
Идентификатор : 2
Формат : AC-3
Формат/Информация : Audio Coding 3
Расширение режима : CM (complete main)
Идентификатор кодека : A_AC3
Продолжительность : 1 ч. 20 м.
Вид битрейта : Постоянный
Битрейт : 192 Кбит/сек
Каналы : 2 канала
Расположение каналов : Front: L R
Частота : 48,0 КГц
Битовая глубина : 16 бит
Метод сжатия : С потерями
Размер потока : 110 Мбайт (15%)
Default : Да
Forced : Нет



Интересно, что сцены, где Евгений с подругой плавают на лодке, снимали в гатчинском парке, а где Кошмарик сидел в ресторане — в п. Выра, ресторан «У Самсона Вырина» на трассе Санкт-Петербург—Псков (Киевское шоссе, примерно 60—70 км). Ресторан и сейчас действует.



   Похожие торренты   Торрент   Размер 
В этой теме нет новых непрочитанных сообщений. Пропавшие среди живых (1981) DVDRip от New-Team

7 | 5

744.72 МБ

В этой теме нет новых непрочитанных сообщений. Девственница среди живых мертвецов / Christina, princesse de l'érotisme (1973) DVDRip от R.G. Mega Best

16 | 29

1.12 ГБ

В этой теме нет новых непрочитанных сообщений. Озеро живых мертвецов / Le lac des morts vivants (1981) DVDRip | A

78 | 32

1.37 ГБ

В этой теме нет новых непрочитанных сообщений. Пропавшие / Без вести пропавшие / Desaparecidos (2011) DVDRip | L1

18 | 2

695.78 МБ

В этой теме нет новых непрочитанных сообщений. Девственница среди живых мертвецов / La nuit des étoiles filantes (1973) BDRip | A

89 | 23

1.46 ГБ

В этой теме нет новых непрочитанных сообщений. Девственница среди живых мертвецов / La nuit des étoiles filantes (1973) BDRip 720p | A

53 | 26

4.47 ГБ

В этой теме нет новых непрочитанных сообщений. Девственница среди живых мертвецов / Кристина, принцесса эротизма / La nuit des étoiles filantes (1973) Blu-Ray Remux 1080p | A

4 | 6

16.89 ГБ




Вы не можете начинать темы
Вы не можете отвечать на сообщения
Вы не можете редактировать свои сообщения
Вы не можете удалять свои сообщения
Вы не можете добавлять вложения

Перейти:  
Для Мосгорсуда, Роскомнадзора и рекламодателей: mosgorsud-torrent[собачка]yandex.ru
 Вход
ppkBB3cker v.2 © 2008-2014 @ PPK
[ Time : 0.038s | 14 Queries | GZIP : Off ]

Торрент трекер RUTOR.IN, Не можете зайти на rutor.org? Какой новый адрес рутор? Какое зеркало рутор? Не работает rutor.org и зеркала? Тогда наш торрент специально для вас. Rutor.in неофициальное зеркало rutor. В случае если у Вас заблокирован rutor или вдруг Вы не можете на него зайти, то Вы без труда сможете скачать бесплатно и без рекламы последние новинки кино, игр, сериалов и прочего у нас, на Rutor.in. Не нужно использовать прокси, чтобы зайти на рутор, достаточно воспользоваться нашим ресурсом. Все новые фильмы, игры, сериалы, книги и музыка за 2013 и 2014 годы через торрент бесплатно. Скачивайте фильмы в хорошем качестве, игры для пк, xbox, playstation без регистрации. У нас вы найдете новые Зарубежные сериалы и Русские сериалы 2013, 2014, 2015 годов. Оставайтесь с нами, качайте любимые фильмы, игры, сериалы, книги и музыку.