img image001 image001 image001 image001 image001 image001 image001 image001 image001 image001 image001 image001 image001 image001 image001

Planets Sun Sun Sun
Статистика раздачи
Автор: PriZraK | Размер: 743.85 МБ | Добавлен: 15 фев 2014
Раздают: 6    Качают: 5
Скачать торрент
Скачать торрент
Описание торрента

СообщениеДобавлено: 15 фев 2014 


#77
Страна: СССР
Производство: Студия Довженко, Одесская киностудия

Жанр: военный
Год выпуска: 1981
Продолжительность: 01:21:49

Перевод: не требуется
Оригинальная аудиодорожка: русский
Cубтитры: нет

Режиссер: Тимур Золоев

В ролях:
Борис Галкин, Виктор Плют, Сергей Качанов, Алексей Золотницкий, Яхье Файзулаев, Рустам Тураев, Валерий Полетаев, Владимир Антонов, Ирина Пономарева, Владимир Борчанинов, Николай Гринько...


Лето 1944 года, Белоруссия. Группе советских воинов поручено срочно доставить через линию фронта нашего разведчика из немецкого тыла. Из трех сопровождающих не все сумели остаться в живых и выполнить задание...





Исходник: DVB
Тип релиза: SATRip
Контейнер: AVI

Видео: 688x368 (1,995:1), 25 fps, XviD ~ 1133 kbps avg, 0.179 bit/pixel
Аудио: 48 kHz, MP3 2.0, 128 kbps

Раздача от:
Общее
Полное имя : Ozhidanie.polkovnika.Shalygina.1981.SATRip-745_[New-team]_by_AVP_Studio.avi
Формат : AVI
Формат/Информация : Audio Video Interleave
Размер файла : 744 Мбайт
Продолжительность : 1 ч. 21 м.
Общий поток : 1271 Кбит/сек
Программа кодирования : VirtualDubModRus 1.5.10.2 (build 2542/release)
Библиотека кодирования : VirtualDubMod build 2542/release

Видео
Идентификатор : 0
Формат : MPEG-4 Visual
Профиль формата : Advanced Simple@L5
Параметр BVOP формата : 1
Параметр QPel формата : Нет
Параметр GMC формата : Без точки перехода
Параметр матрицы формата : Выборочная
Идентификатор кодека : XVID
Идентификатор кодека/Подсказка : XviD
Продолжительность : 1 ч. 21 м.
Битрейт : 1133 Кбит/сек
Ширина : 688 пикселей
Высота : 368 пикселей
Соотношение сторон : 1,995
Частота кадров : 25,000 кадров/сек
Цветовое пространство : YUV
Субдискретизация насыщенности : 4:2:0
Битовая глубина : 8 бит
Тип развёртки : Прогрессивная
Метод сжатия : С потерями
Бит/(Пиксели*Кадры) : 0.179
Размер потока : 663 Мбайт (89%)
Библиотека кодирования : XviD 73

Аудио
Идентификатор : 1
Формат : MPEG Audio
Версия формата : Version 1
Профиль формата : Layer 3
Идентификатор кодека : 55
Идентификатор кодека/Подсказка : MP3
Продолжительность : 1 ч. 21 м.
Вид битрейта : Постоянный
Битрейт : 128 Кбит/сек
Каналы : 2 канала
Частота : 48,0 КГц
Метод сжатия : С потерями
Размер потока : 74,9 Мбайт (10%)
Выравнивание : Соединение по промежуткам
Продолжительность промежутка : 40 мс. (1,00 видеокадр)
Время предзагрузки промежутка : 504 мс.
Библиотека кодирования : LAME3.99r
Настройки программы : -m s -V 4 -q 2 -lowpass 17 -b 128





   Похожие торренты   Торрент   Размер 
В этой теме нет новых непрочитанных сообщений. Ожидание полковника Шалыгина (1981) SATRip-AVC от New-Team

32 | 11

744.81 МБ

В этой теме нет новых непрочитанных сообщений. Ожидание полковника Шалыгина (1981) SATRip от New-Team

57 | 11

1.46 ГБ

В этой теме нет новых непрочитанных сообщений. Ожидание полковника Шалыгина (1981) SATRip

8 | 2

1.37 ГБ

В этой теме нет новых непрочитанных сообщений. Версия полковника Зорина (1978) DVDRip от New-Team

4 | 3

744.53 МБ

В этой теме нет новых непрочитанных сообщений. Версия полковника Зорина (1978) DVDRip-AVC от New-Team

32 | 10

744.85 МБ

В этой теме нет новых непрочитанных сообщений. Ожидание (1980) SATRip от NovaLan

6 | 2

926.43 МБ

В этой теме нет новых непрочитанных сообщений. Ожидание (1980) SATRip от Files-x

28 | 3

2.02 ГБ




Вы не можете начинать темы
Вы не можете отвечать на сообщения
Вы не можете редактировать свои сообщения
Вы не можете удалять свои сообщения
Вы не можете добавлять вложения

Перейти:  
Для Мосгорсуда, Роскомнадзора и рекламодателей: mosgorsud-torrent[собачка]yandex.ru
 Вход
ppkBB3cker v.2 © 2008-2014 @ PPK
[ Time : 0.115s | 14 Queries | GZIP : Off ]

Торрент трекер RUTOR.IN, Не можете зайти на rutor.org? Какой новый адрес рутор? Какое зеркало рутор? Не работает rutor.org и зеркала? Тогда наш торрент специально для вас. Rutor.in неофициальное зеркало rutor. В случае если у Вас заблокирован rutor или вдруг Вы не можете на него зайти, то Вы без труда сможете скачать бесплатно и без рекламы последние новинки кино, игр, сериалов и прочего у нас, на Rutor.in. Не нужно использовать прокси, чтобы зайти на рутор, достаточно воспользоваться нашим ресурсом. Все новые фильмы, игры, сериалы, книги и музыка за 2013 и 2014 годы через торрент бесплатно. Скачивайте фильмы в хорошем качестве, игры для пк, xbox, playstation без регистрации. У нас вы найдете новые Зарубежные сериалы и Русские сериалы 2013, 2014, 2015 годов. Оставайтесь с нами, качайте любимые фильмы, игры, сериалы, книги и музыку.