img image001 image001 image001 image001 image001 image001 image001 image001 image001 image001 image001 image001 image001 image001 image001

Planets Sun Sun Sun
Статистика раздачи
Автор: PriZraK | Размер: 741.22 МБ | Добавлен: 15 фев 2014
Раздают: 53    Качают: 4
Скачать торрент
Скачать торрент
Описание торрента

СообщениеДобавлено: 15 фев 2014 


#77
Страна: Россия
Производство: Tarkifilm

Жанр: мелодрама
Год выпуска: 1992
Продолжительность: 1:17:49

Перевод: не требуется
Оригинальная аудиодорожка: русский
Cубтитры: нет

Режиссер: Валентин Ховенко

В ролях:
Сергей Стеблов, Инга Ильм, Светлана Крючкова, Клара Лучко, Леонид Кулагин, Галина Петрова, Владимир Привалов, Евгений Бубер, Максим Будимиров, Игорь Донченко...


Хоккейная травма — шайба угодила прямо в глаз — привела симпатичного молодого хоккеиста в медицинский глазной центр. В палате, в которую он попал, существует закон — девчонка, которая находится в такой же палате, на том же месте, но этажом выше, должна быть с ним.
Послав законодателей` с их законами вначале, наш герой случайно увидел в холле центра свою избранницу, ничего не видящую, но такую красивую и очаровательную, что понял: он увидел свою мечту, любовь, а может и жизнь. Его выписывают, ей предстоит серьезная операция. Нервный шок от невозможности быть рядом с любимой был настолько силен, что мозг приказывает ему быть слепым. Но они хотят видеть!
Она — потому, что любит жизнь, он — потому что любит больше жизни. Они просто должны, обязаны видеть свет и друг друга!...





Исходник: DVD5 R5
Тип релиза: DVDRip
Контейнер: AVI

Видео: 672x496 (4:3), 25 fps, XviD ~ 1194 kbps avg, 0.143 bit/pixel
Аудио: 48 kHz, MP3 2.0, 128 kbps

Раздача от:
Общее
Полное имя : Glaza.1992.DVDRip-745_[New-team]_by_AVP_Studio.avi
Формат : AVI
Формат/Информация : Audio Video Interleave
Размер файла : 741 Мбайт
Продолжительность : 1 ч. 17 м.
Общий поток : 1332 Кбит/сек
Программа кодирования : VirtualDubModRus 1.5.10.2 (build 2542/release)
Библиотека кодирования : VirtualDubMod build 2542/release

Видео
Идентификатор : 0
Формат : MPEG-4 Visual
Профиль формата : Advanced Simple@L5
Параметр BVOP формата : 1
Параметр QPel формата : Нет
Параметр GMC формата : Без точки перехода
Параметр матрицы формата : Выборочная
Идентификатор кодека : XVID
Идентификатор кодека/Подсказка : XviD
Продолжительность : 1 ч. 17 м.
Битрейт : 1194 Кбит/сек
Ширина : 672 пикселя
Высота : 496 пикселей
Соотношение сторон : 4:3
Частота кадров : 25,000 кадров/сек
Цветовое пространство : YUV
Субдискретизация насыщенности : 4:2:0
Битовая глубина : 8 бит
Тип развёртки : Прогрессивная
Метод сжатия : С потерями
Бит/(Пиксели*Кадры) : 0.143
Размер потока : 665 Мбайт (90%)
Библиотека кодирования : XviD 73

Аудио
Идентификатор : 1
Формат : MPEG Audio
Версия формата : Version 1
Профиль формата : Layer 3
Идентификатор кодека : 55
Идентификатор кодека/Подсказка : MP3
Продолжительность : 1 ч. 17 м.
Вид битрейта : Постоянный
Битрейт : 128 Кбит/сек
Каналы : 2 канала
Частота : 48,0 КГц
Метод сжатия : С потерями
Размер потока : 71,2 Мбайт (10%)
Выравнивание : Соединение по промежуткам
Продолжительность промежутка : 40 мс. (1,00 видеокадр)
Время предзагрузки промежутка : 504 мс.
Библиотека кодирования : LAME3.99r
Настройки программы : -m s -V 4 -q 2 -lowpass 17 -b 128





   Похожие торренты   Торрент   Размер 
В этой теме нет новых непрочитанных сообщений. Глаза (1992) DVDRip-AVC от New-Team

15 | 4

1.46 ГБ

В этой теме нет новых непрочитанных сообщений. Глаза (1992) DVDRip от New-Team

16 | 2

1.45 ГБ

В этой теме нет новых непрочитанных сообщений. Глаза (1992) DVDRip

0 | 3

697.76 МБ

В этой теме нет новых непрочитанных сообщений. Берегите глаза! / Осторожно – глаза! / Attention les yeux! (1975) DVDRip от FilmRus | P

184 | 18

1.37 ГБ

В этой теме нет новых непрочитанных сообщений. Четыре глаза и шестизарядный / Four Eyes And Six-guns (1992) SATRip от Brazzass

208 | 19

1.49 ГБ

В этой теме нет новых непрочитанных сообщений. Василий Шаульский и группа Флаерс - Карие глаза (1992) FLAC

2 | 2

1.01 ГБ

В этой теме нет новых непрочитанных сообщений. Глаза звезды / Звездные глаза / Starry Eyes (2014) WEB-DLRip от CINEMANIA | L2

1297 | 134

1.4 ГБ




Вы не можете начинать темы
Вы не можете отвечать на сообщения
Вы не можете редактировать свои сообщения
Вы не можете удалять свои сообщения
Вы не можете добавлять вложения

Перейти:  
Для Мосгорсуда, Роскомнадзора и рекламодателей: mosgorsud-torrent[собачка]yandex.ru
 Вход
ppkBB3cker v.2 © 2008-2014 @ PPK
[ Time : 0.033s | 14 Queries | GZIP : Off ]

Торрент трекер RUTOR.IN, Не можете зайти на rutor.org? Какой новый адрес рутор? Какое зеркало рутор? Не работает rutor.org и зеркала? Тогда наш торрент специально для вас. Rutor.in неофициальное зеркало rutor. В случае если у Вас заблокирован rutor или вдруг Вы не можете на него зайти, то Вы без труда сможете скачать бесплатно и без рекламы последние новинки кино, игр, сериалов и прочего у нас, на Rutor.in. Не нужно использовать прокси, чтобы зайти на рутор, достаточно воспользоваться нашим ресурсом. Все новые фильмы, игры, сериалы, книги и музыка за 2013 и 2014 годы через торрент бесплатно. Скачивайте фильмы в хорошем качестве, игры для пк, xbox, playstation без регистрации. У нас вы найдете новые Зарубежные сериалы и Русские сериалы 2013, 2014, 2015 годов. Оставайтесь с нами, качайте любимые фильмы, игры, сериалы, книги и музыку.