img image001 image001 image001 image001 image001 image001 image001 image001 image001 image001 image001 image001 image001 image001 image001

Planets Sun Sun Sun
Статистика раздачи
Автор: PriZraK | Размер: 1.46 ГБ | Добавлен: 15 фев 2014
Раздают: 17    Качают: 5
Скачать торрент
Скачать торрент
Описание торрента

СообщениеДобавлено: 15 фев 2014 


#77
Страна: Россия
Производство: Tarkifilm

Жанр: мелодрама
Год выпуска: 1992
Продолжительность: 1:17:49

Перевод: не требуется
Оригинальная аудиодорожка: русский
Cубтитры: нет

Режиссер: Валентин Ховенко

В ролях:
Сергей Стеблов, Инга Ильм, Светлана Крючкова, Клара Лучко, Леонид Кулагин, Галина Петрова, Владимир Привалов, Евгений Бубер, Максим Будимиров, Игорь Донченко...


Хоккейная травма — шайба угодила прямо в глаз — привела симпатичного молодого хоккеиста в медицинский глазной центр. В палате, в которую он попал, существует закон — девчонка, которая находится в такой же палате, на том же месте, но этажом выше, должна быть с ним.
Послав законодателей` с их законами вначале, наш герой случайно увидел в холле центра свою избранницу, ничего не видящую, но такую красивую и очаровательную, что понял: он увидел свою мечту, любовь, а может и жизнь. Его выписывают, ей предстоит серьезная операция. Нервный шок от невозможности быть рядом с любимой был настолько силен, что мозг приказывает ему быть слепым. Но они хотят видеть!
Она — потому, что любит жизнь, он — потому что любит больше жизни. Они просто должны, обязаны видеть свет и друг друга!...





Исходник: DVD5 R5
Тип релиза: DVDRip-AVC
Контейнер: MKV

Видео: 672->768x574 (4:3), 25 fps, H264 ~ 2485 kbps avg, 0.258 bit/pixel
Аудио: 48 kHz, Dolby AC3 2.0, 192 kbps

Раздача от:
Общее
Полное имя : Glaza.1992.DVDRip-AVC_[New-team]_by_AVP_Studio.mkv
Формат : Matroska
Версия формата : Version 2
Размер файла : 1,46 Гбайт
Продолжительность : 1 ч. 17 м.
Общий поток : 2679 Кбит/сек
Дата кодирования : UTC 2013-12-25 23:13:54
Программа кодирования : mkvmerge v6.1.0 ('Old Devil') built on Mar 4 2013 09:10:42
Библиотека кодирования : libebml v1.3.0 + libmatroska v1.4.0

Видео
Идентификатор : 1
Формат : AVC
Формат/Информация : Advanced Video Codec
Профиль формата : High@L4.1
Параметр CABAC формата : Да
Параметр ReFrames формата : 6 кадров
Идентификатор кодека : V_MPEG4/ISO/AVC
Продолжительность : 1 ч. 17 м.
Битрейт : 2485 Кбит/сек
Ширина : 672 пикселя
Высота : 574 пикселя
Соотношение сторон : 4:3
Частота кадров : 25,000 кадров/сек
Цветовое пространство : YUV
Субдискретизация насыщенности : 4:2:0
Битовая глубина : 8 бит
Тип развёртки : Прогрессивная
Бит/(Пиксели*Кадры) : 0.258
Размер потока : 1,32 Гбайт (91%)
Библиотека кодирования : x264 core 138 r2356 a1d3d17
Настройки программы : cabac=1 / ref=6 / deblock=1:-2:-1 / analyse=0x3:0x113 / me=umh / subme=10 / psy=1 / psy_rd=1.00:0.05 / mixed_ref=1 / me_range=32 / chroma_me=1 / trellis=2 / 8x8dct=1 / cqm=0 / deadzone=21,11 / fast_pskip=0 / chroma_qp_offset=-3 / threads=3 / lookahead_threads=1 / sliced_threads=0 / nr=0 / decimate=0 / interlaced=0 / bluray_compat=0 / constrained_intra=0 / bframes=8 / b_pyramid=2 / b_adapt=2 / b_bias=0 / direct=3 / weightb=1 / open_gop=0 / weightp=2 / keyint=250 / keyint_min=25 / scenecut=40 / intra_refresh=0 / rc=2pass / mbtree=0 / bitrate=2485 / ratetol=1.0 / qcomp=0.60 / qpmin=0 / qpmax=69 / qpstep=4 / cplxblur=20.0 / qblur=0.5 / ip_ratio=1.40 / pb_ratio=1.30 / aq=1:1.00
Default : Да
Forced : Нет

Аудио
Идентификатор : 2
Формат : AC-3
Формат/Информация : Audio Coding 3
Расширение режима : CM (complete main)
Идентификатор кодека : A_AC3
Продолжительность : 1 ч. 17 м.
Вид битрейта : Постоянный
Битрейт : 192 Кбит/сек
Каналы : 2 канала
Расположение каналов : Front: L R
Частота : 48,0 КГц
Битовая глубина : 16 бит
Метод сжатия : С потерями
Задержка видео : 8 с. 576 мс.
Размер потока : 107 Мбайт (7%)
Default : Да
Forced : Нет





   Похожие торренты   Торрент   Размер 
В этой теме нет новых непрочитанных сообщений. Глаза (1992) DVDRip от New-Team

18 | 2

1.45 ГБ

В этой теме нет новых непрочитанных сообщений. Глаза (1992) DVDRip от New-Team

53 | 4

741.22 МБ

В этой теме нет новых непрочитанных сообщений. Глаза (1992) DVDRip

0 | 3

697.76 МБ

В этой теме нет новых непрочитанных сообщений. Берегите глаза! / Осторожно – глаза! / Attention les yeux! (1975) DVDRip от FilmRus | P

88 | 8

1.37 ГБ

В этой теме нет новых непрочитанных сообщений. Василий Шаульский и группа Флаерс - Карие глаза (1992) FLAC

2 | 2

1.01 ГБ

В этой теме нет новых непрочитанных сообщений. Четыре глаза и шестизарядный / Four Eyes And Six-guns (1992) SATRip от Brazzass

208 | 19

1.49 ГБ

В этой теме нет новых непрочитанных сообщений. Глаза звезды / Звездные глаза / Starry Eyes (2014) WEB-DLRip от CINEMANIA | L2

1297 | 134

1.4 ГБ




Вы не можете начинать темы
Вы не можете отвечать на сообщения
Вы не можете редактировать свои сообщения
Вы не можете удалять свои сообщения
Вы не можете добавлять вложения

Перейти:  
Для Мосгорсуда, Роскомнадзора и рекламодателей: mosgorsud-torrent[собачка]yandex.ru
 Вход
ppkBB3cker v.2 © 2008-2014 @ PPK
[ Time : 0.042s | 16 Queries | GZIP : Off ]

cron