img image001 image001 image001 image001 image001 image001 image001 image001 image001 image001 image001 image001 image001 image001 image001

Planets Sun Sun Sun
Статистика раздачи
Автор: PriZraK | Размер: 2.09 ГБ | Добавлен: 15 фев 2014
Раздают: 3    Качают: 4
Скачать торрент
Скачать торрент
Описание торрента

СообщениеДобавлено: 15 фев 2014 




Информация о фильме
Оригинальное название: Байконур
Год выхода: 2011
Жанр: Драма
Режиссер: Файт Хелмер
В ролях: Александр Асохаков, Мари де Вильпен, Ситора Фармонова, Валера Канищев, Ерболат Тогузаков

О фильме:
Искандер по прозвищу Гагарин живет в деревне Кунгей возле космодрома. Жизнь жителей деревни размеренно течет от одного взлёта ракеты к следующему. Пока однажды с неба не падает прекрасная космическая туристка Джули. Жизнь Гагарина перевернулась. Он влюблен без пямяти и готов ради Джули на все — отдать ей свадебное платье матери, поставить в юрте ванную и даже уйти из деревни. Сможет ли француженка оценить его жертвы, если она потеряла память и теперь отзывается на казахское имя Кокетай?



Страна: Россия, Германия, Казахстан
Студия: Кинокомпания CTB
Продолжительность: 01:31:01

Файл
Кодек: MPEG-4 AVC
Качество: HDTVRip 720p
Видео: 2950 Кбит/с, 1280x692, 25.000 кадр/с
Звук: Русский (АС3, 6 ch, 384 Кбит/с)

Семпл


Общее
Полное имя : Bajkonur.2011.x264.HDTVRip(720p).MediaClub.mkv
Формат : Matroska
Версия формата : Version 2
Размер файла : 2,09 Гбайт
Продолжительность : 1 ч. 31 м.
Общий поток : 3288 Кбит/сек
Дата кодирования : UTC 2013-12-26 17:41:43
Программа кодирования : mkvmerge v5.4.0 ('Piper') built on Mar 10 2012 13:34:39
Библиотека кодирования : libebml v1.2.3 + libmatroska v1.3.0

Видео
Идентификатор : 1
Формат : AVC
Формат/Информация : Advanced Video Codec
Профиль формата : High@L4.1
Параметр CABAC формата : Да
Параметр ReFrames формата : 9 кадров
Идентификатор кодека : V_MPEG4/ISO/AVC
Продолжительность : 1 ч. 31 м.
Битрейт : 2950 Кбит/сек
Ширина : 1280 пикселей
Высота : 692 пикселя
Соотношение сторон : 1,85:1
Режим частоты кадров : Постоянный
Частота кадров : 25,000 кадров/сек
Цветовое пространство : YUV
Субдискретизация насыщенности : 4:2:0
Битовая глубина : 8 бит
Тип развёртки : Прогрессивная
Бит/(Пиксели*Кадры) : 0.133
Размер потока : 1,80 Гбайт (86%)
Библиотека кодирования : x264 core 125 r2208 d9d2288
Настройки программы : cabac=1 / ref=9 / deblock=1:-2:-2 / analyse=0x3:0x133 / me=umh / subme=10 / psy=1 / psy_rd=1.00:0.15 / mixed_ref=1 / me_range=32 / chroma_me=1 / trellis=2 / 8x8dct=1 / cqm=0 / deadzone=21,11 / fast_pskip=0 / chroma_qp_offset=-3 / threads=6 / lookahead_threads=1 / sliced_threads=0 / nr=0 / decimate=0 / interlaced=0 / bluray_compat=0 / constrained_intra=0 / bframes=8 / b_pyramid=2 / b_adapt=2 / b_bias=0 / direct=3 / weightb=1 / open_gop=0 / weightp=2 / keyint=250 / keyint_min=25 / scenecut=40 / intra_refresh=0 / rc=2pass / mbtree=0 / bitrate=2950 / ratetol=1.0 / qcomp=0.60 / qpmin=0 / qpmax=69 / qpstep=4 / cplxblur=20.0 / qblur=0.5 / ip_ratio=1.40 / pb_ratio=1.30 / aq=1:0.80
Язык : English
Default : Да
Forced : Нет

Аудио
Идентификатор : 2
Формат : AC-3
Формат/Информация : Audio Coding 3
Расширение режима : CM (complete main)
Параметр Endianness формата : Big
Идентификатор кодека : A_AC3
Продолжительность : 1 ч. 31 м.
Вид битрейта : Постоянный
Битрейт : 384 Кбит/сек
Каналы : 6 каналов
Расположение каналов : Front: L C R, Side: L R, LFE
Частота : 48,0 КГц
Битовая глубина : 16 бит
Метод сжатия : С потерями
Задержка видео : 2 с. 500 мс.
Размер потока : 250 Мбайт (12%)
Язык : Russian
Default : Да
Forced : Нет


Релиз от:



   Похожие торренты   Торрент   Размер 
В этой теме нет новых непрочитанных сообщений. Байконур (2011) HDTVRip-AVC от MediaClub

14 | 3

1.39 ГБ

В этой теме нет новых непрочитанных сообщений. Байконур (2011) HDTVRip 1080p от MediaClub

29 | 11

3.4 ГБ

В этой теме нет новых непрочитанных сообщений. Байконур (2011) DVDRip

12 | 3

1.37 ГБ

В этой теме нет новых непрочитанных сообщений. Казак (2011) HDTVRip 720p от MediaClub

121 | 4

2.43 ГБ

В этой теме нет новых непрочитанных сообщений. Участковый [01-02 из 24] (2011) HDTVRip 720p от MediaClub

5 | 1

4.86 ГБ

В этой теме нет новых непрочитанных сообщений. Снято! / Cut (2011) HDTVRip 720p от MediaClub | P

8 | 1

3.28 ГБ

В этой теме нет новых непрочитанных сообщений. Участковый [01-02 из 24] (2011) HDTVRip 720p от MediaClub

28 | 3

2.43 ГБ




Вы не можете начинать темы
Вы не можете отвечать на сообщения
Вы не можете редактировать свои сообщения
Вы не можете удалять свои сообщения
Вы не можете добавлять вложения

Перейти:  
Для Мосгорсуда, Роскомнадзора и рекламодателей: mosgorsud-torrent[собачка]yandex.ru
 Вход
ppkBB3cker v.2 © 2008-2014 @ PPK
[ Time : 0.035s | 15 Queries | GZIP : Off ]

Торрент трекер RUTOR.IN, Не можете зайти на rutor.org? Какой новый адрес рутор? Какое зеркало рутор? Не работает rutor.org и зеркала? Тогда наш торрент специально для вас. Rutor.in неофициальное зеркало rutor. В случае если у Вас заблокирован rutor или вдруг Вы не можете на него зайти, то Вы без труда сможете скачать бесплатно и без рекламы последние новинки кино, игр, сериалов и прочего у нас, на Rutor.in. Не нужно использовать прокси, чтобы зайти на рутор, достаточно воспользоваться нашим ресурсом. Все новые фильмы, игры, сериалы, книги и музыка за 2013 и 2014 годы через торрент бесплатно. Скачивайте фильмы в хорошем качестве, игры для пк, xbox, playstation без регистрации. У нас вы найдете новые Зарубежные сериалы и Русские сериалы 2013, 2014, 2015 годов. Оставайтесь с нами, качайте любимые фильмы, игры, сериалы, книги и музыку.