img image001 image001 image001 image001 image001 image001 image001 image001 image001 image001 image001 image001 image001 image001 image001

Planets Sun Sun Sun
Статистика раздачи
Автор: PriZraK | Размер: 1.45 ГБ | Добавлен: 15 фев 2014
Раздают: 113    Качают: 17
Скачать торрент
Скачать торрент
Описание торрента

СообщениеДобавлено: 15 фев 2014 


#77
Страна: СССР
Производство: Студия Довженко, Мосфильм

Жанр: боевик, драма, военный, история
Год выпуска: 1981
Продолжительность: 02:20:40 (01:07:05 + 01:13:35)

Перевод: не требуется
Оригинальная аудиодорожка: русский
Cубтитры: нет

Режиссер: Григорий Кохан

В ролях:
Юрий Муравицкий, Пётр Вельяминов, Людмила Смородина, Константин Степанков, Олег Драч, Николай Белый, Николай Бабенко, Леонид Филатов, Всеволод Гаврилов (озвучание - Павел Морозенко), Борис Ставицкий, Татьяна Кондырева (Чернядьева), Ольга Белявская, Андрей Харитонов, Николай Гринько, Вацлав Дворжецкий, Лембит Ульфсак, Александр Быструшкин, Виктор Шульгин, Александр Карин, Алексей Колесник, Игорь Слободской, Николай Заднепровский, Николай Дупак, Бимболат (Бибо) Ватаев, Раиса Недашковская, Марк Гресь, Виктор МаляревичОсип (Иосиф) Найдук, Геннадий Четвериков, Олег Фёдоров, Олег Федулов...


Первая половина XI столетия. После смерти князя Владимира киевский престол завоевал один из его сыновей — Ярослав, Фильм — о борьбе, которую вел новый киевский князь с внутренними и внешними врагами Руси. Параллельно развивается сюжет драматической любви Ярослава Мудрого к простой девушке Любаве...





Исходник: DVD5 R5
Тип релиза: DVDRip-AVC
Контейнер: MKV

Видео: 696->1016x572 (16:9), 25 fps, H264 ~ 1287 kbps avg, 0.129 bit/pixel
Аудио: 48 kHz, Dolby AC3 2.0, 192 kbps

Раздача от:
Общее
Полное имя : Yaroslav.Mudryy.1981.DVDRip-AVC_[New-team]_by_AVP_Studio\01.mkv
Формат : Matroska
Версия формата : Version 2
Размер файла : 710 Мбайт
Продолжительность : 1 ч. 7 м.
Общий поток : 1481 Кбит/сек
Дата кодирования : UTC 2013-12-26 18:12:03
Программа кодирования : mkvmerge v6.1.0 ('Old Devil') built on Mar 4 2013 09:10:42
Библиотека кодирования : libebml v1.3.0 + libmatroska v1.4.0

Видео
Идентификатор : 1
Формат : AVC
Формат/Информация : Advanced Video Codec
Профиль формата : High@L4.1
Параметр CABAC формата : Да
Параметр ReFrames формата : 6 кадров
Идентификатор кодека : V_MPEG4/ISO/AVC
Продолжительность : 1 ч. 7 м.
Битрейт : 1287 Кбит/сек
Ширина : 696 пикселей
Высота : 572 пикселя
Соотношение сторон : 16:9
Частота кадров : 25,000 кадров/сек
Цветовое пространство : YUV
Субдискретизация насыщенности : 4:2:0
Битовая глубина : 8 бит
Тип развёртки : Прогрессивная
Бит/(Пиксели*Кадры) : 0.129
Размер потока : 604 Мбайт (85%)
Библиотека кодирования : x264 core 138 r2356 a1d3d17
Настройки программы : cabac=1 / ref=6 / deblock=1:-2:-1 / analyse=0x3:0x113 / me=umh / subme=10 / psy=1 / psy_rd=1.00:0.05 / mixed_ref=1 / me_range=32 / chroma_me=1 / trellis=2 / 8x8dct=1 / cqm=0 / deadzone=21,11 / fast_pskip=0 / chroma_qp_offset=-3 / threads=3 / lookahead_threads=1 / sliced_threads=0 / nr=0 / decimate=0 / interlaced=0 / bluray_compat=0 / constrained_intra=0 / bframes=8 / b_pyramid=2 / b_adapt=2 / b_bias=0 / direct=3 / weightb=1 / open_gop=0 / weightp=2 / keyint=250 / keyint_min=25 / scenecut=40 / intra_refresh=0 / rc=2pass / mbtree=0 / bitrate=1287 / ratetol=1.0 / qcomp=0.60 / qpmin=0 / qpmax=69 / qpstep=4 / cplxblur=20.0 / qblur=0.5 / ip_ratio=1.40 / pb_ratio=1.30 / aq=1:1.00
Default : Да
Forced : Нет

Аудио
Идентификатор : 2
Формат : AC-3
Формат/Информация : Audio Coding 3
Расширение режима : CM (complete main)
Идентификатор кодека : A_AC3
Продолжительность : 1 ч. 7 м.
Вид битрейта : Постоянный
Битрейт : 192 Кбит/сек
Каналы : 2 канала
Расположение каналов : Front: L R
Частота : 48,0 КГц
Битовая глубина : 16 бит
Метод сжатия : С потерями
Размер потока : 92,1 Мбайт (13%)
Default : Да
Forced : Нет





   Похожие торренты   Торрент   Размер 
В этой теме нет новых непрочитанных сообщений. Ярослав Мудрый (1981) DVDRip от New-Team

17 | 5

1.45 ГБ

В этой теме нет новых непрочитанных сообщений. Ярослав Мудрый [2 серии из 2] (1981) DVDRip от AndrewWhite

28 | 10

1.97 ГБ

В этой теме нет новых непрочитанных сообщений. Ярослав. Тысячу лет назад (2010) BDRip (720p) от NOLIMITS-TEAM

17 | 21

2.18 ГБ

В этой теме нет новых непрочитанных сообщений. Шестой (1981) DVDRip от New-Team

171 | 8

1.46 ГБ

В этой теме нет новых непрочитанных сообщений. Всё наоборот (1981) DVDRip-AVC от New-Team

17 | 2

744.64 МБ

В этой теме нет новых непрочитанных сообщений. Шестой (1981) DVDRip-AVC от New-Team

87 | 7

1.46 ГБ

В этой теме нет новых непрочитанных сообщений. Туз / Asso (1981) DVDRip-AVC от New-Team

67 | 10

1.46 ГБ




Вы не можете начинать темы
Вы не можете отвечать на сообщения
Вы не можете редактировать свои сообщения
Вы не можете удалять свои сообщения
Вы не можете добавлять вложения

Перейти:  
Для Мосгорсуда, Роскомнадзора и рекламодателей: mosgorsud-torrent[собачка]yandex.ru
 Вход
ppkBB3cker v.2 © 2008-2014 @ PPK
[ Time : 0.037s | 14 Queries | GZIP : Off ]

Торрент трекер RUTOR.IN, Не можете зайти на rutor.org? Какой новый адрес рутор? Какое зеркало рутор? Не работает rutor.org и зеркала? Тогда наш торрент специально для вас. Rutor.in неофициальное зеркало rutor. В случае если у Вас заблокирован rutor или вдруг Вы не можете на него зайти, то Вы без труда сможете скачать бесплатно и без рекламы последние новинки кино, игр, сериалов и прочего у нас, на Rutor.in. Не нужно использовать прокси, чтобы зайти на рутор, достаточно воспользоваться нашим ресурсом. Все новые фильмы, игры, сериалы, книги и музыка за 2013 и 2014 годы через торрент бесплатно. Скачивайте фильмы в хорошем качестве, игры для пк, xbox, playstation без регистрации. У нас вы найдете новые Зарубежные сериалы и Русские сериалы 2013, 2014, 2015 годов. Оставайтесь с нами, качайте любимые фильмы, игры, сериалы, книги и музыку.