img image001 image001 image001 image001 image001 image001 image001 image001 image001 image001 image001 image001 image001 image001 image001

Planets Sun Sun Sun
Статистика раздачи
Автор: PriZraK | Размер: 24.26 ГБ | Добавлен: 15 фев 2014, 01:33
Раздают: 242    Качают: 89
Скачать торрент
Скачать торрент
Описание торрента

СообщениеДобавлено: 15 фев 2014, 01:33 




Год выпуска: 2006-2009
Страна: Россия
Жанр: Триллеры, Детективы
Продолжительность: 45 мин. серия
Кол-во серий/сезонов: 44 / 4
Перевод: Оригинал (Русский)


В ролях: Дмитрий Назаров, Наталия Житкова, Алексей Шутов
Режиссёр: Александр Бурцев


Описание: Необычайно увлекательный сериал «Вызов» состоит из четырех сезонов. Посмотреть на то, как три профессиональных следователя раскрывают самые запутанные дела, вы можете онлайн уже сейчас.
Алексей Ильич Хромов, чью роль блестяще исполняет Дмитрий Назаров, возглавляет группу московских следователей. Игорь Лямин (Алексей Шутов) — верный помощник Хромова, храбрый, умный человек, обладающий единственным значительным недостатком. Лямин — неисправимый ловелас, не пропускающий ни одной юбки. Третий и последний член группы — эксперт-криминалист Ольга Барышева (Наталия Житкова), женщина умная и проницательная.
Группа следователей специализируется на особо сложных делах, часто окруженных мистикой, раскрыть которые не под силу местным силам правопорядка. Героям приходится разгадывать таинственные загадки, сталкиваться с парадоксальными и невероятными событиями, а кроме того, давать отпор и местным властям, порою не заинтересованным в том, чтобы то или иное преступление было раскрыто.




Качество: WEB-DL
Формат: MPEG-4
Видео кодек: AVC
Аудио кодек: AAC
Видео: MPEG4 Video (H264) 640x360 25fps 1661kbps
Аудио: AAC 48000Hz stereo 127kbps



Format : MPEG-4
Format profile : Base Media
Codec ID : isom
File size : 584 MiB
Duration : 45mn 35s
Overall bit rate : 1 790 Kbps
Encoded date : UTC 2010-03-31 06:20:48
Tagged date : UTC 2010-03-31 06:20:48
Writing application : Lavf53.32.100

Video
ID : 1
Format : AVC
Format/Info : Advanced Video Codec
Format profile : Main@L3.0
Format settings, CABAC : Yes
Format settings, ReFrames : 4 frames
Codec ID : avc1
Codec ID/Info : Advanced Video Coding
Duration : 45mn 35s
Bit rate : 1 700 Kbps
Width : 640 pixels
Height : 360 pixels
Display aspect ratio : 16:9
Frame rate mode : Constant
Frame rate : 25.000 fps
Color space : YUV
Chroma subsampling : 4:2:0
Bit depth : 8 bits
Scan type : Progressive
Bits/(Pixel*Frame) : 0.295
Stream size : 541 MiB (93%)
Writing library : x264 core 120
Encoding settings : cabac=1 / ref=2 / deblock=1:0:0 / analyse=0x1:0x131 / me=umh / subme=6 / psy=0 / mixed_ref=0 / me_range=16 / chroma_me=1 / trellis=0 / 8x8dct=0 / cqm=0 / deadzone=21,11 / fast_pskip=0 / chroma_qp_offset=0 / threads=1 / sliced_threads=0 / nr=0 / decimate=1 / interlaced=0 / bluray_compat=0 / constrained_intra=0 / bframes=2 / b_pyramid=2 / b_adapt=1 / b_bias=0 / direct=3 / weightb=1 / open_gop=0 / weightp=2 / keyint=25 / keyint_min=2 / scenecut=40 / intra_refresh=0 / rc_lookahead=25 / rc=2pass / mbtree=0 / bitrate=1700 / ratetol=1.0 / qcomp=0.60 / qpmin=7 / qpmax=51 / qpstep=4 / cplxblur=20.0 / qblur=0.5 / vbv_maxrate=1700 / vbv_bufsize=512 / nal_hrd=none / ip_ratio=1.40 / pb_ratio=1.30 / aq=1:1.00
Language : Russian
Encoded date : UTC 2010-03-31 06:20:48
Tagged date : UTC 2013-01-19 07:55:51

Audio
ID : 2
Format : AAC
Format/Info : Advanced Audio Codec
Format profile : LC
Codec ID : 40
Duration : 45mn 35s
Bit rate mode : Constant
Bit rate : 128 Kbps
Channel count : 2 channels
Channel positions : Front: L R
Sampling rate : 48.0 KHz
Compression mode : Lossy
Delay relative to video : 80ms
Stream size : 41.7 MiB (7%)
Language : Russian


Фильм первый. И раб, и царь, часть первая
Фильм первый. И раб, и царь, часть вторая
Фильм первый. И раб, и царь, часть третья
Фильм первый. И раб, и царь, часть четвертая

Фильм второй. Отражение, часть первая
Фильм второй. Отражение, часть вторая
Фильм второй. Отражение, часть третья
Фильм второй. Отражение, часть четвертая

Фильм третий. Чужая тень, часть первая
Фильм третий. Чужая тень, часть вторая
Фильм третий. Чужая тень, часть третья
Фильм третий. Чужая тень, часть четвертая

Фильм четвертый. Предсказание, часть первая
Фильм четвертый. Предсказание, часть вторая
Фильм четвертый. Предсказание, часть третья
Фильм четвертый. Предсказание, часть четвертая

Фильм пятый. Инкубационный период, часть первая
Фильм пятый. Инкубационный период, часть вторая
Фильм пятый. Инкубационный период, часть третья
Фильм пятый. Инкубационный период, часть четвертая

Фильм шестой. Жертва, часть первая
Фильм шестой. Жертва, часть вторая
Фильм шестой. Жертва, часть третья
Фильм шестой. Жертва, часть четвертая

Фильм седьмой. Зона возмездия, часть первая
Фильм седьмой. Зона возмездия, часть вторая
Фильм седьмой. Зона возмездия, часть третья
Фильм седьмой. Зона возмездия, часть четвертая

Фильм восьмой. Уровень смерти, часть первая
Фильм восьмой. Уровень смерти, часть вторая
Фильм восьмой. Уровень смерти, часть третья
Фильм восьмой. Уровень смерти, часть четвертая

Фильм девятый. Семь сыновей Нга, часть первая
Фильм девятый. Семь сыновей Нга, часть вторая
Фильм девятый. Семь сыновей Нга, часть третья
Фильм девятый. Семь сыновей Нга, часть четвертая

Фильм десятый. Корабль‐призрак, часть первая
Фильм десятый. Корабль‐призрак, часть вторая
Фильм десятый. Корабль‐призрак, часть третья
Фильм десятый. Корабль‐призрак, часть четвертая

Фильм одиннадцатый. Пропавшие, часть первая
Фильм одиннадцатый. Пропавшие, часть вторая
Фильм одиннадцатый. Пропавшие, часть третья
Фильм одиннадцатый. Пропавшие, часть четвертая


















   Похожие торренты   Торрент   Размер 
В этой теме нет новых непрочитанных сообщений. Вызов [S02] (2006) WEBRip-AVC

151 | 108

7.34 ГБ

В этой теме нет новых непрочитанных сообщений. Экстренный вызов. Фильм 1. Лишний свидетель [01-04 из 04] (2006) DVDRip от КинозалSAT

44 | 13

1.96 ГБ

В этой теме нет новых непрочитанных сообщений. Вызов [S04] (2009) WEBRip-AVC

149 | 84

4.83 ГБ

В этой теме нет новых непрочитанных сообщений. Придорожное заведение 2: Последний вызов / Road House 2: Last Call (2006) DVDRip

80 | 17

1.46 ГБ

В этой теме нет новых непрочитанных сообщений. Придорожное заведение 2: Последний вызов / Road House 2: Last Call (2006) DVDRip

9 | 6

690.22 МБ

В этой теме нет новых непрочитанных сообщений. Вызов / Dare (2009) HDRip

4 | 6

1.46 ГБ

В этой теме нет новых непрочитанных сообщений. Вызов / Dare (2009) BDRip от HELLYWOOD

3 | 3

1.45 ГБ




Вы не можете начинать темы
Вы не можете отвечать на сообщения
Вы не можете редактировать свои сообщения
Вы не можете удалять свои сообщения
Вы не можете добавлять вложения

Перейти:  
Для Мосгорсуда, Роскомнадзора и рекламодателей: mosgorsud-torrent[собачка]yandex.ru
Настройки
ppkBB3cker v.2 © 2008-2014 @ PPK
[ Time : 0.023s | 15 Queries | GZIP : Off ]
CGP [Extreme] output time : 0.00017s | 0 Queries | GZIP : Off

Торрент трекер RUTOR.IN, Не можете зайти на rutor.org? Какой новый адрес рутор? Какое зеркало рутор? Не работает rutor.org и зеркала? Тогда наш торрент специально для вас. Rutor.in неофициальное зеркало rutor. В случае если у Вас заблокирован rutor или вдруг Вы не можете на него зайти, то Вы без труда сможете скачать бесплатно и без рекламы последние новинки кино, игр, сериалов и прочего у нас, на Rutor.in. Не нужно использовать прокси, чтобы зайти на рутор, достаточно воспользоваться нашим ресурсом. Все новые фильмы, игры, сериалы, книги и музыка за 2013 и 2014 годы через торрент бесплатно. Скачивайте фильмы в хорошем качестве, игры для пк, xbox, playstation без регистрации. У нас вы найдете новые Зарубежные сериалы и Русские сериалы 2013, 2014, 2015 годов. Оставайтесь с нами, качайте любимые фильмы, игры, сериалы, книги и музыку.