img image001 image001 image001 image001 image001 image001 image001 image001 image001 image001 image001 image001 image001 image001 image001

Planets Sun Sun Sun
Статистика раздачи
Автор: PriZraK | Размер: 1.46 ГБ | Добавлен: 15 фев 2014
Раздают: 24    Качают: 9
Скачать торрент
Скачать торрент
Описание торрента

СообщениеДобавлено: 15 фев 2014 


#77
Страна: CCCP
Производство: Ленфильм

Жанр: драма, мелодрама
Год выпуска: 1978
Продолжительность: 01:33:00

Перевод: не требуется
Оригинальная аудиодорожка: русский
Cубтитры: нет

Режиссер: Леонид Менакер

В ролях:
Анна Каменкова, Владлен Бирюков, Галина Макарова, Сергей Проханов, Елена Мельникова (Кузнецова), Наталья Назарова, Соня Джишкариани, Валентина Владимирова, Т. Горлова, Анатолий Рудаков, Игорь Озеров, Любовь Соколова, Игорь Эрельт...


Маня и Володя полюбили друг друга еще в седьмом классе сельской школы, а когда парень ушел в армию, девушка ждала его. А Володя вернулся и… привез на свадьбу сестры новую подружку. От нанесенной обиды Маня назло всему свету и самой себе согласилась выйти замуж за Алексея, вдовца средних лет, имеющего маленькую дочь.
Работящий и хозяйственный мужчина, казалось, мог бы стать для своей жены «каменной стеной», но трудно оказалось Мане в доме мужа, который пытался отгородить ее от жизни, от людей. И Маня наперекор его воле уехала в город сдавать вступительные экзамены в заочный техникум…





Исходник: DVD5 R5
Тип релиза: DVDRip
Контейнер: AVI

Видео: 720x336 (2,2:1), 25 fps, XviD ~ 2041 kbps avg, 0.337 bit/pixel
Аудио: 48 kHz, Dolby AC3 2.0, 192 kbps

Раздача от:
Общее
Полное имя : Molodaya.zhena.1978.DVDRip_[New-team]_by_AVP_Studio.avi
Формат : AVI
Формат/Информация : Audio Video Interleave
Размер файла : 1,46 Гбайт
Продолжительность : 1 ч. 33 м.
Общий поток : 2242 Кбит/сек
Программа кодирования : VirtualDubModRus 1.5.10.2 (build 2542/release)
Библиотека кодирования : VirtualDubMod build 2542/release

Видео
Идентификатор : 0
Формат : MPEG-4 Visual
Профиль формата : Advanced Simple@L5
Параметр BVOP формата : 1
Параметр QPel формата : Нет
Параметр GMC формата : Без точки перехода
Параметр матрицы формата : Выборочная
Идентификатор кодека : XVID
Идентификатор кодека/Подсказка : XviD
Продолжительность : 1 ч. 33 м.
Битрейт : 2041 Кбит/сек
Ширина : 720 пикселей
Высота : 336 пикселей
Соотношение сторон : 2,2:1
Частота кадров : 25,000 кадров/сек
Цветовое пространство : YUV
Субдискретизация насыщенности : 4:2:0
Битовая глубина : 8 бит
Тип развёртки : Прогрессивная
Метод сжатия : С потерями
Бит/(Пиксели*Кадры) : 0.337
Размер потока : 1,33 Гбайт (91%)
Библиотека кодирования : XviD 73

Аудио
Идентификатор : 1
Формат : AC-3
Формат/Информация : Audio Coding 3
Расширение режима : CM (complete main)
Идентификатор кодека : 2000
Продолжительность : 1 ч. 32 м.
Вид битрейта : Постоянный
Битрейт : 192 Кбит/сек
Каналы : 2 канала
Расположение каналов : Front: L R
Частота : 48,0 КГц
Битовая глубина : 16 бит
Метод сжатия : С потерями
Размер потока : 128 Мбайт (9%)
Выравнивание : Разделение по промежуткам
Продолжительность промежутка : 40 мс. (1,00 видеокадр)
Время предзагрузки промежутка : 500 мс





   Похожие торренты   Торрент   Размер 
В этой теме нет новых непрочитанных сообщений. Молодая жена (1978) DVDRip от New-Team

30 | 5

744.67 МБ

В этой теме нет новых непрочитанных сообщений. Молодая жена (1978) DVDRip-AVC от New-Team

148 | 26

1.46 ГБ

В этой теме нет новых непрочитанных сообщений. Молодая жена (1978) DVDRip

164 | 25

1.37 ГБ

В этой теме нет новых непрочитанных сообщений. Молодая гвардия (1948) DVDRip от New-Team

88 | 14

1.46 ГБ

В этой теме нет новых непрочитанных сообщений. Молодая гвардия (1948) DVDRip-AVC от New-Team

52 | 6

2.18 ГБ

В этой теме нет новых непрочитанных сообщений. Молодая гвардия (1948) DVDRip от New-Team

32 | 4

2.18 ГБ

В этой теме нет новых непрочитанных сообщений. Молодая кровь / Son of a Gun (2014) BDRip-AVC от New-Team | iTunes

181 | 19

1.45 ГБ




Вы не можете начинать темы
Вы не можете отвечать на сообщения
Вы не можете редактировать свои сообщения
Вы не можете удалять свои сообщения
Вы не можете добавлять вложения

Перейти:  
Для Мосгорсуда, Роскомнадзора и рекламодателей: mosgorsud-torrent[собачка]yandex.ru
 Вход
ppkBB3cker v.2 © 2008-2014 @ PPK
[ Time : 0.031s | 15 Queries | GZIP : Off ]

Торрент трекер RUTOR.IN, Не можете зайти на rutor.org? Какой новый адрес рутор? Какое зеркало рутор? Не работает rutor.org и зеркала? Тогда наш торрент специально для вас. Rutor.in неофициальное зеркало rutor. В случае если у Вас заблокирован rutor или вдруг Вы не можете на него зайти, то Вы без труда сможете скачать бесплатно и без рекламы последние новинки кино, игр, сериалов и прочего у нас, на Rutor.in. Не нужно использовать прокси, чтобы зайти на рутор, достаточно воспользоваться нашим ресурсом. Все новые фильмы, игры, сериалы, книги и музыка за 2013 и 2014 годы через торрент бесплатно. Скачивайте фильмы в хорошем качестве, игры для пк, xbox, playstation без регистрации. У нас вы найдете новые Зарубежные сериалы и Русские сериалы 2013, 2014, 2015 годов. Оставайтесь с нами, качайте любимые фильмы, игры, сериалы, книги и музыку.