img image001 image001 image001 image001 image001 image001 image001 image001 image001 image001 image001 image001 image001 image001 image001

Planets Sun Sun Sun
Статистика раздачи
Автор: PriZraK | Размер: 745.21 МБ | Добавлен: 15 фев 2014
Раздают: 157    Качают: 18
Скачать торрент
Скачать торрент
Описание торрента

СообщениеДобавлено: 15 фев 2014 


#77
Страна: CCCP
Производство: Студия Горького

Жанр: драма, мелодрама
Год выпуска: 1982
Продолжительность: 01:25:38

Перевод: не требуется
Оригинальная аудиодорожка: русский
Cубтитры: нет

Режиссер: Борис Дуров

В ролях:
Сергей Варчук, Анастасия Иванова, Татьяна Паркина, Александр Коршунов, Александр Савченко, Софья Павлова, Владимир Антоник, Светлана Дирина, Валерий Войтюк, Игорь Воробьев, Людмила Дьяконова, Ела Санько, Людмила Дроздова, Клавдия Козленкова, Раиса Куркина, Николай Сахаров, Владимир Соловьев...


Девушка Лида влюбляется в красивого парня, спортсмена Сергея, но он женится на другой. А потом произошла трагедия, и Сергей оказывается прикованным к постели из-за тяжелой травмы позвоночника. Жена, не выдержав испытания, бросает его, и жизнь для молодого человека кажется законченной. Но, узнав о его беде, к Сергею приезжает Лида. Поначалу он относится к ней с раздражением и недоверием и даже пытается покончить с собой. Но преданность, доброта и забота заставляют его посмотреть на происходящее иначе…





Исходник: DVD5 R5
Тип релиза: DVDRip
Контейнер: AVI

Видео: 688x288 (2,40:1), 25 fps, XviD ~ 1015 kbps avg, 0.205 bit/pixel
Аудио: 48 kHz, Dolby AC3 2.0, 192 kbps

Раздача от:
Общее
Полное имя : Ne.mogu.skazat.proshhay.1982.DVDRip_[New-team]_by_AVP_Studio.avi
Формат : AVI
Формат/Информация : Audio Video Interleave
Размер файла : 745 Мбайт
Продолжительность : 1 ч. 25 м.
Общий поток : 1216 Кбит/сек
Программа кодирования : VirtualDubModRus 1.5.10.2 (build 2542/release)
Библиотека кодирования : VirtualDubMod build 2542/release

Видео
Идентификатор : 0
Формат : MPEG-4 Visual
Профиль формата : Advanced Simple@L5
Параметр BVOP формата : 1
Параметр QPel формата : Нет
Параметр GMC формата : Без точки перехода
Параметр матрицы формата : Выборочная
Идентификатор кодека : XVID
Идентификатор кодека/Подсказка : XviD
Продолжительность : 1 ч. 25 м.
Битрейт : 1015 Кбит/сек
Ширина : 688 пикселей
Высота : 288 пикселей
Соотношение сторон : 2,40:1
Частота кадров : 25,000 кадров/сек
Цветовое пространство : YUV
Субдискретизация насыщенности : 4:2:0
Битовая глубина : 8 бит
Тип развёртки : Прогрессивная
Метод сжатия : С потерями
Бит/(Пиксели*Кадры) : 0.205
Размер потока : 622 Мбайт (83%)
Библиотека кодирования : XviD 73

Аудио
Идентификатор : 1
Формат : AC-3
Формат/Информация : Audio Coding 3
Расширение режима : CM (complete main)
Идентификатор кодека : 2000
Продолжительность : 1 ч. 25 м.
Вид битрейта : Постоянный
Битрейт : 192 Кбит/сек
Каналы : 2 канала
Расположение каналов : Front: L R
Частота : 48,0 КГц
Битовая глубина : 16 бит
Метод сжатия : С потерями
Размер потока : 118 Мбайт (16%)
Выравнивание : Разделение по промежуткам
Продолжительность промежутка : 40 мс. (1,00 видеокадр)
Время предзагрузки промежутка : 500 мс





   Похожие торренты   Торрент   Размер 
В этой теме нет новых непрочитанных сообщений. Не могу сказать «прощай» (1982) DVDRip-AVC от New-Team

604 | 15

743.67 МБ

В этой теме нет новых непрочитанных сообщений. Не могу сказать "Прощай" (1982) DVDRip

370 | 16

1.37 ГБ

В этой теме нет новых непрочитанных сообщений. Не могу сказать "Прощай" (1982) DVDRip

323 | 49

1.37 ГБ

В этой теме нет новых непрочитанных сообщений. Прощай, Америка! (1951) DVDRip-AVC от New-Team

46 | 4

1.09 ГБ

В этой теме нет новых непрочитанных сообщений. Прощай, Америка! (1951) DVDRip от New-Team

12 | 5

744.77 МБ

В этой теме нет новых непрочитанных сообщений. Прощай, Америка! (1951) DVDRip от New-Team

13 | 4

1.09 ГБ

В этой теме нет новых непрочитанных сообщений. Успей сказать (2011) DVDRip

5 | 3

744.36 МБ




Вы не можете начинать темы
Вы не можете отвечать на сообщения
Вы не можете редактировать свои сообщения
Вы не можете удалять свои сообщения
Вы не можете добавлять вложения

Перейти:  
Для Мосгорсуда, Роскомнадзора и рекламодателей: mosgorsud-torrent[собачка]yandex.ru
 Вход
ppkBB3cker v.2 © 2008-2014 @ PPK
[ Time : 0.116s | 15 Queries | GZIP : Off ]

Торрент трекер RUTOR.IN, Не можете зайти на rutor.org? Какой новый адрес рутор? Какое зеркало рутор? Не работает rutor.org и зеркала? Тогда наш торрент специально для вас. Rutor.in неофициальное зеркало rutor. В случае если у Вас заблокирован rutor или вдруг Вы не можете на него зайти, то Вы без труда сможете скачать бесплатно и без рекламы последние новинки кино, игр, сериалов и прочего у нас, на Rutor.in. Не нужно использовать прокси, чтобы зайти на рутор, достаточно воспользоваться нашим ресурсом. Все новые фильмы, игры, сериалы, книги и музыка за 2013 и 2014 годы через торрент бесплатно. Скачивайте фильмы в хорошем качестве, игры для пк, xbox, playstation без регистрации. У нас вы найдете новые Зарубежные сериалы и Русские сериалы 2013, 2014, 2015 годов. Оставайтесь с нами, качайте любимые фильмы, игры, сериалы, книги и музыку.