img image001 image001 image001 image001 image001 image001 image001 image001 image001 image001 image001 image001 image001 image001 image001

Planets Sun Sun Sun
Статистика раздачи
Автор: PriZraK | Размер: 743.67 МБ | Добавлен: 15 фев 2014
Раздают: 596    Качают: 14
Скачать торрент
Скачать торрент
Описание торрента

СообщениеДобавлено: 15 фев 2014 


#77
Страна: CCCP
Производство: Студия Горького

Жанр: драма, мелодрама
Год выпуска: 1982
Продолжительность: 01:25:38

Перевод: не требуется
Оригинальная аудиодорожка: русский
Cубтитры: нет

Режиссер: Борис Дуров

В ролях:
Сергей Варчук, Анастасия Иванова, Татьяна Паркина, Александр Коршунов, Александр Савченко, Софья Павлова, Владимир Антоник, Светлана Дирина, Валерий Войтюк, Игорь Воробьев, Людмила Дьяконова, Ела Санько, Людмила Дроздова, Клавдия Козленкова, Раиса Куркина, Николай Сахаров, Владимир Соловьев...


Девушка Лида влюбляется в красивого парня, спортсмена Сергея, но он женится на другой. А потом произошла трагедия, и Сергей оказывается прикованным к постели из-за тяжелой травмы позвоночника. Жена, не выдержав испытания, бросает его, и жизнь для молодого человека кажется законченной. Но, узнав о его беде, к Сергею приезжает Лида. Поначалу он относится к ней с раздражением и недоверием и даже пытается покончить с собой. Но преданность, доброта и забота заставляют его посмотреть на происходящее иначе…





Исходник: DVD5 R5
Тип релиза: DVDRip-AVC
Контейнер: MKV

Видео: 696->960x400 (2,40:1), 25 fps, H264 ~ 1020 kbps avg, 0.147 bit/pixel
Аудио: 48 kHz, Dolby AC3 2.0, 192 kbps

Раздача от:
Общее
Полное имя : Ne.mogu.skazat.proshhay.1982.DVDRip-AVC_[New-team]_by_AVP_Studio.mkv
Формат : Matroska
Версия формата : Version 2
Размер файла : 744 Мбайт
Продолжительность : 1 ч. 25 м.
Общий поток : 1214 Кбит/сек
Дата кодирования : UTC 2013-12-29 02:11:08
Программа кодирования : mkvmerge v6.1.0 ('Old Devil') built on Mar 4 2013 09:10:42
Библиотека кодирования : libebml v1.3.0 + libmatroska v1.4.0

Видео
Идентификатор : 1
Формат : AVC
Формат/Информация : Advanced Video Codec
Профиль формата : High@L4.1
Параметр CABAC формата : Да
Параметр ReFrames формата : 6 кадров
Идентификатор кодека : V_MPEG4/ISO/AVC
Продолжительность : 1 ч. 25 м.
Битрейт : 1020 Кбит/сек
Ширина : 696 пикселей
Высота : 400 пикселей
Соотношение сторон : 2,40:1
Частота кадров : 25,000 кадров/сек
Цветовое пространство : YUV
Субдискретизация насыщенности : 4:2:0
Битовая глубина : 8 бит
Тип развёртки : Прогрессивная
Бит/(Пиксели*Кадры) : 0.147
Размер потока : 611 Мбайт (82%)
Библиотека кодирования : x264 core 138 r2356 a1d3d17
Настройки программы : cabac=1 / ref=6 / deblock=1:-2:-1 / analyse=0x3:0x113 / me=umh / subme=10 / psy=1 / psy_rd=1.00:0.05 / mixed_ref=1 / me_range=32 / chroma_me=1 / trellis=2 / 8x8dct=1 / cqm=0 / deadzone=21,11 / fast_pskip=0 / chroma_qp_offset=-3 / threads=3 / lookahead_threads=1 / sliced_threads=0 / nr=0 / decimate=0 / interlaced=0 / bluray_compat=0 / constrained_intra=0 / bframes=8 / b_pyramid=2 / b_adapt=2 / b_bias=0 / direct=3 / weightb=1 / open_gop=0 / weightp=2 / keyint=250 / keyint_min=25 / scenecut=40 / intra_refresh=0 / rc=2pass / mbtree=0 / bitrate=1020 / ratetol=1.0 / qcomp=0.60 / qpmin=0 / qpmax=69 / qpstep=4 / cplxblur=20.0 / qblur=0.5 / ip_ratio=1.40 / pb_ratio=1.30 / aq=1:1.00
Default : Да
Forced : Нет

Аудио
Идентификатор : 2
Формат : AC-3
Формат/Информация : Audio Coding 3
Расширение режима : CM (complete main)
Идентификатор кодека : A_AC3
Продолжительность : 1 ч. 25 м.
Вид битрейта : Постоянный
Битрейт : 192 Кбит/сек
Каналы : 2 канала
Расположение каналов : Front: L R
Частота : 48,0 КГц
Битовая глубина : 16 бит
Метод сжатия : С потерями
Размер потока : 118 Мбайт (16%)
Default : Да
Forced : Нет





   Похожие торренты   Торрент   Размер 
В этой теме нет новых непрочитанных сообщений. Не могу сказать «прощай» (1982) DVDRip от New-Team

145 | 17

745.21 МБ

В этой теме нет новых непрочитанных сообщений. Не могу сказать "Прощай" (1982) DVDRip

323 | 49

1.37 ГБ

В этой теме нет новых непрочитанных сообщений. Не могу сказать "Прощай" (1982) DVDRip

370 | 16

1.37 ГБ

В этой теме нет новых непрочитанных сообщений. Прощай, Америка! (1951) DVDRip от New-Team

13 | 4

1.09 ГБ

В этой теме нет новых непрочитанных сообщений. Прощай, Америка! (1951) DVDRip от New-Team

12 | 5

744.77 МБ

В этой теме нет новых непрочитанных сообщений. Прощай, Америка! (1951) DVDRip-AVC от New-Team

46 | 4

1.09 ГБ

В этой теме нет новых непрочитанных сообщений. Успей сказать (2011) DVDRip

5 | 3

744.36 МБ




Вы не можете начинать темы
Вы не можете отвечать на сообщения
Вы не можете редактировать свои сообщения
Вы не можете удалять свои сообщения
Вы не можете добавлять вложения

Перейти:  
Для Мосгорсуда, Роскомнадзора и рекламодателей: mosgorsud-torrent[собачка]yandex.ru
 Вход
ppkBB3cker v.2 © 2008-2014 @ PPK
[ Time : 0.032s | 17 Queries | GZIP : Off ]

Торрент трекер RUTOR.IN, Не можете зайти на rutor.org? Какой новый адрес рутор? Какое зеркало рутор? Не работает rutor.org и зеркала? Тогда наш торрент специально для вас. Rutor.in неофициальное зеркало rutor. В случае если у Вас заблокирован rutor или вдруг Вы не можете на него зайти, то Вы без труда сможете скачать бесплатно и без рекламы последние новинки кино, игр, сериалов и прочего у нас, на Rutor.in. Не нужно использовать прокси, чтобы зайти на рутор, достаточно воспользоваться нашим ресурсом. Все новые фильмы, игры, сериалы, книги и музыка за 2013 и 2014 годы через торрент бесплатно. Скачивайте фильмы в хорошем качестве, игры для пк, xbox, playstation без регистрации. У нас вы найдете новые Зарубежные сериалы и Русские сериалы 2013, 2014, 2015 годов. Оставайтесь с нами, качайте любимые фильмы, игры, сериалы, книги и музыку.
cron