img image001 image001 image001 image001 image001 image001 image001 image001 image001 image001 image001 image001 image001 image001 image001

Planets Sun Sun Sun
Статистика раздачи
Автор: PriZraK | Размер: 1.46 ГБ | Добавлен: 15 фев 2014
Раздают: 183    Качают: 12
Скачать торрент
Скачать торрент
Описание торрента

СообщениеДобавлено: 15 фев 2014 




"Мы разыграем другую партию и сделаем это красиво и элегантно..."


Информация о фильме
Название: Классик
Год выхода: 1998
Жанр: Боевик, криминал
Режиссер: Георгий Шенгелия
В ролях: Сергей Никоненко, Алексей Гуськов, Юозас Будрайтис, Лидия Вележева, Валентина Теличкина, Александр Панкратов-Чёрный, Владимир Этуш, Владимир Зельдин, Евгений Серов, Михаил Шашков, Анатолий Журавлёв, Валерий Баринов, Валерий Фрид, Владимир Литвинов, Юрий Слободенюк, Евгений Богородский, Виктор Савкин, Владимир Тимофеев, Михаил Хомяков, Александр Коданев, Вячеслав Бухаров, Екатерина Толдонова, Арий Чумаков, Алексей Крыченков, Наиль Идрисов, Ирина Блинова

О фильме:
Действующие «асы» бильярда из разных городов России решили сообща сделать подарок своим учителям, доживающим свои дни в богадельнях. Они решили собрать деньги и поселить своих бывших бильярдных наставников в приличном поместье - особняке с участком, с достойным обслуживанием и питанием. Смоленские, питерские и московские авторитеты бильярда сделали свой вклад в «общак». Дошла очередь до одного из областных авторитетов Савицкого. Вначале он не пожелал участвовать в общем деле, но когда его пристыдили, дал 20 тысяч «зелёных», но вслед сборщикам послал убийц. Те решили, что сделали своё дело, и в руки Савицкого попала вся собранная сумма. Но курьеры смогли выжить после нападения и рассказали всё. И тогда был разработан хитрый план…



Страна: Россия
Студия: Киномост
Продолжительность: 01:40:29
Перевод: Не требуется

Файл
Кодек: XviD
Качество: DVDRip
Видео: 1874 Кбит/с, 688x528, 25.000 кадр/с
Звук: АС3, 2 ch, 192 Кбит/с

Полное имя : Klassik.1998.XviD.DVDRip.0ptimus.avi
Формат : AVI
Формат/Информация : Audio Video Interleave
Размер файла : 1,46 Гбайт
Продолжительность : 1 ч. 40 м.
Общий поток : 2076 Кбит/сек
Название фильма : Классик [1998]
Жанр : боевик, криминал
Программа кодирования : VirtualDubMod 1.5.10.3 | www.virtualdub-fr.org || (build 2550/release)

Видео
Идентификатор : 0
Формат : MPEG-4 Visual
Профиль формата : Advanced Simple@L5
Параметр BVOP формата : 1
Параметр QPel формата : Нет
Параметр GMC формата : Без точки перехода
Параметр матрицы формата : Выборочная
Идентификатор кодека : XVID
Идентификатор кодека/Подсказка : XviD
Продолжительность : 1 ч. 40 м.
Битрейт : 1874 Кбит/сек
Ширина : 688 пикселей
Высота : 528 пикселей
Соотношение сторон : 4:3
Частота кадров : 25,000 кадров/сек
Цветовое пространство : YUV
Субдискретизация насыщенности : 4:2:0
Битовая глубина : 8 бит
Тип развёртки : Прогрессивная
Метод сжатия : С потерями
Бит/(Пиксели*Кадры) : 0.206
Размер потока : 1,32 Гбайт (90%)
Библиотека кодирования : XviD 64

Аудио
Идентификатор : 1
Формат : AC-3
Формат/Информация : Audio Coding 3
Расширение режима : CM (complete main)
Идентификатор кодека : 2000
Продолжительность : 1 ч. 40 м.
Вид битрейта : Постоянный
Битрейт : 192 Кбит/сек
Каналы : 2 канала
Расположение каналов : Front: L R
Частота : 48,0 КГц
Битовая глубина : 16 бит
Метод сжатия : С потерями
Размер потока : 138 Мбайт (9%)
Выравнивание : Разделение по промежуткам
Продолжительность промежутка : 40 мс. (1,00 видеокадр)
Время предзагрузки промежутка : 500 мс.






Релиз от:



   Похожие торренты   Торрент   Размер 
В этой теме нет новых непрочитанных сообщений. Классик (1998) DVDRip-AVC от 0ptimus

380 | 48

1.78 ГБ

В этой теме нет новых непрочитанных сообщений. Классик (1998) DVDRip-AVC

15 | 5

1.67 ГБ

В этой теме нет новых непрочитанных сообщений. Классик (1998) DVDRip-AVC от ExKinoRay

319 | 18

1.63 ГБ

В этой теме нет новых непрочитанных сообщений. Классик (1998) DVDRip от Scarabey

444 | 20

1.45 ГБ

В этой теме нет новых непрочитанных сообщений. Классик (1998) DVDRip от Scarabey

27 | 9

741.41 МБ

В этой теме нет новых непрочитанных сообщений. Классик (1998) DVD5

111 | 10

4.15 ГБ

В этой теме нет новых непрочитанных сообщений. Шейпинг-классик от МФШ - Программа № 13 (2005) DVDRip от Youtracker

331 | 21

735.54 МБ




Вы не можете начинать темы
Вы не можете отвечать на сообщения
Вы не можете редактировать свои сообщения
Вы не можете удалять свои сообщения
Вы не можете добавлять вложения

Перейти:  
Для Мосгорсуда, Роскомнадзора и рекламодателей: mosgorsud-torrent[собачка]yandex.ru
 Вход
ppkBB3cker v.2 © 2008-2014 @ PPK
[ Time : 0.058s | 16 Queries | GZIP : Off ]

Торрент трекер RUTOR.IN, Не можете зайти на rutor.org? Какой новый адрес рутор? Какое зеркало рутор? Не работает rutor.org и зеркала? Тогда наш торрент специально для вас. Rutor.in неофициальное зеркало rutor. В случае если у Вас заблокирован rutor или вдруг Вы не можете на него зайти, то Вы без труда сможете скачать бесплатно и без рекламы последние новинки кино, игр, сериалов и прочего у нас, на Rutor.in. Не нужно использовать прокси, чтобы зайти на рутор, достаточно воспользоваться нашим ресурсом. Все новые фильмы, игры, сериалы, книги и музыка за 2013 и 2014 годы через торрент бесплатно. Скачивайте фильмы в хорошем качестве, игры для пк, xbox, playstation без регистрации. У нас вы найдете новые Зарубежные сериалы и Русские сериалы 2013, 2014, 2015 годов. Оставайтесь с нами, качайте любимые фильмы, игры, сериалы, книги и музыку.
cron