img image001 image001 image001 image001 image001 image001 image001 image001 image001 image001 image001 image001 image001 image001 image001

Planets Sun Sun Sun
Статистика раздачи
Автор: PriZraK | Размер: 1.45 ГБ | Добавлен: 15 фев 2014, 01:33
Раздают: 181    Качают: 10
Скачать торрент
Скачать торрент
Описание торрента

СообщениеДобавлено: 15 фев 2014, 01:33 




Страна: Россия
Жанр: детский, приключения, семейный
Год выпуска: 2013

Продолжительность: 01:18:48


Перевод: Не требуется

Режиссер: Ольга Каптур

В ролях:
Кира Флейшер (Саша), Вячеслав Манучаров (полпред), Наталья Селезнёва (бабушка), Владимир Грамматиков (дедушка), Андрей Кайков (Кот Багет), Ирина Пегова (мама), Дмитрий Назаров (папа), Евгений Воскресенский (часовщик), Ивонн Каттерфельд (Королева), Дарья Андреева (хорошая девочка № 1), Полина Буданцева (хорошая девочка № 2), Родион Смирнов (мальчик № 7)


Описание: Девочка Саша была весёлой, но не очень хорошей девочкой. Она жила с бабушкой, дедушкой, мамой, папой, псом Балбесом и котом Багетом. Однажды в новогоднюю ночь по загаданному в сердцах желанию родителей Саша была отправлена волшебником в Страну Хороших Деточек на перевоспитание. Только действительно ли так хороша эта страна?






Качество: WEB-DLRip
Контейнер: AVI
Исходник: WEB-DL 720р
Видео: XviD, 720x400 (16:9), 2247 kbps, 25 fps, 0,312 bpp
Аудио: AC3 / 5.1 / 48 kHz / 384 kbps / 16 bit



General
Complete name : E:My_ripStrana.horoshih.detochek.2013.WEBDLRip.[New-Team].avi
Format : AVI
Format/Info : Audio Video Interleave
File size : 1.45 GiB
Duration : 1h 18mn
Overall bit rate : 2 642 Kbps
Writing application : VirtualDubMod 1.5.10.3 | www.virtualdub-fr.org || (build 2550/release)
Writing library : VirtualDubMod build 2550/release

Video
ID : 0
Format : MPEG-4 Visual
Format profile : Advanced Simple@L5
Format settings, BVOP : 1
Format settings, QPel : No
Format settings, GMC : No warppoints
Format settings, Matrix : Custom
Muxing mode : Packed bitstream
Codec ID : XVID
Codec ID/Hint : XviD
Duration : 1h 18mn
Bit rate : 2 248 Kbps
Width : 720 pixels
Height : 400 pixels
Display aspect ratio : 16:9
Frame rate : 25.000 fps
Color space : YUV
Chroma subsampling : 4:2:0
Bit depth : 8 bits
Scan type : Progressive
Compression mode : Lossy
Bits/(Pixel*Frame) : 0.312
Stream size : 1.24 GiB (85%)
Writing library : XviD 65

Audio
ID : 1
Format : AC-3
Format/Info : Audio Coding 3
Mode extension : CM (complete main)
Codec ID : 2000
Duration : 1h 18mn
Bit rate mode : Constant
Bit rate : 384 Kbps
Channel(s) : 6 channels
Channel positions : Front: L C R, Side: L R, LFE
Sampling rate : 48.0 KHz
Bit depth : 16 bits
Compression mode : Lossy
Stream size : 216 MiB (15%)
Alignment : Split accross interleaves
Interleave, duration : 40 ms (1.00 video frame)
Interleave, preload duration : 500 ms


Релиз от:



   Похожие торренты   Торрент   Размер 
В этой теме нет новых непрочитанных сообщений. Страна хороших деточек (2013) WEB-DLRip от -=HD-NET=- | КПК | iTunes

95 | 4

299.31 МБ

В этой теме нет новых непрочитанных сообщений. Страна хороших деточек (2013) WEB-DLRip От Deadmauvlad | iTunes

286 | 8

747.02 МБ

В этой теме нет новых непрочитанных сообщений. Страна хороших деточек (2013) DVD-5

112 | 7

3.64 ГБ

В этой теме нет новых непрочитанных сообщений. Страна хороших деточек (2013) DVDRip

178 | 13

744.65 МБ

В этой теме нет новых непрочитанных сообщений. Страна хороших деточек (2013) WEB-DL 720p | iTunes

214 | 11

2.46 ГБ

В этой теме нет новых непрочитанных сообщений. Страна хороших деточек (2013) HDTV 1080i от MediaClub

104 | 10

5.26 ГБ

В этой теме нет новых непрочитанных сообщений. Страна ОЗ (2015) WEB-DLRip от New-Team

8249 | 305

1.46 ГБ




Вы не можете начинать темы
Вы не можете отвечать на сообщения
Вы не можете редактировать свои сообщения
Вы не можете удалять свои сообщения
Вы не можете добавлять вложения

Перейти:  
Для Мосгорсуда, Роскомнадзора и рекламодателей: mosgorsud-torrent[собачка]yandex.ru
Настройки
ppkBB3cker v.2 © 2008-2014 @ PPK
[ Time : 0.014s | 16 Queries | GZIP : Off ]
CGP [Extreme] output time : 0.00074s | 0 Queries | GZIP : Off

Торрент трекер RUTOR.IN, Не можете зайти на rutor.org? Какой новый адрес рутор? Какое зеркало рутор? Не работает rutor.org и зеркала? Тогда наш торрент специально для вас. Rutor.in неофициальное зеркало rutor. В случае если у Вас заблокирован rutor или вдруг Вы не можете на него зайти, то Вы без труда сможете скачать бесплатно и без рекламы последние новинки кино, игр, сериалов и прочего у нас, на Rutor.in. Не нужно использовать прокси, чтобы зайти на рутор, достаточно воспользоваться нашим ресурсом. Все новые фильмы, игры, сериалы, книги и музыка за 2013 и 2014 годы через торрент бесплатно. Скачивайте фильмы в хорошем качестве, игры для пк, xbox, playstation без регистрации. У нас вы найдете новые Зарубежные сериалы и Русские сериалы 2013, 2014, 2015 годов. Оставайтесь с нами, качайте любимые фильмы, игры, сериалы, книги и музыку.