img image001 image001 image001 image001 image001 image001 image001 image001 image001 image001 image001 image001 image001 image001 image001

Planets Sun Sun Sun
Статистика раздачи
Автор: PriZraK | Размер: 2.19 ГБ | Добавлен: 15 фев 2014
Раздают: 83    Качают: 11
Скачать торрент
Скачать торрент
Описание торрента

СообщениеДобавлено: 15 фев 2014 


#77
Страна: СССР
Производство: Гостелерадио, Одесская киностудия

Жанр: мюзикл, фантастика, мелодрама, комедия
Год выпуска: 1982
Продолжительность: 2:26:37 (01:10:22 + 01:16:15)

Перевод: не требуется
Оригинальная аудиодорожка: русский
Cубтитры: нет

Режиссер: Константин Бромберг

В ролях:
Александра Яковлева, Александр Абдулов, Валентин Гафт, Екатерина Васильева, Валерий Золотухин, Эммануил Виторган, Михаил Светин, Роман Филиппов, Семен Фарада, Аня Ашимова, Е.Абрамова, И.Бельгер, В.Смоляницкая, Лилия Макеева, Леонид Харитонов, Николай Парфенов, Евгений Весник, Елизавета Никищихина, Павел Винник, Николай Маликов, Олег Чайка, Ирина Гришина, Глеб Плаксин, Владимир Пицек, В.Лыков...

Описание:
Новогодняя сказка о том, что настоящая любовь может творить чудеса. В институте «НУИНУ» (научный универсальный институт необыкновенных услуг) кипит бурная работа по изготовлению волшебной палочки. Презентация изобретения намечена на 31 декабря, в Новогодний вечер. Но тут в дело вступают противники директора института, преследующие свои цели…





Исходник: DVD9 R5
Тип релиза: DVDRip-AVC
Контейнер: MKV

Видео: 712->764x572 (4:3), 25 fps, H264 ~ 1684 kbps avg, 0.165 bit/pixel
Аудио: 48 kHz, Dolby AC3 5.1, 448 kbps

Раздача от:
Общее
Полное имя : Charodei.1982.DVDRip-AVC_[New-team]_by_AVP_Studio1.mkv
Формат : Matroska
Версия формата : Version 2
Размер файла : 1,05 Гбайт
Продолжительность : 1 ч. 10 м.
Общий поток : 2133 Кбит/сек
Дата кодирования : UTC 2013-12-31 22:36:15
Программа кодирования : mkvmerge v6.1.0 ('Old Devil') built on Mar 4 2013 09:10:42
Библиотека кодирования : libebml v1.3.0 + libmatroska v1.4.0

Видео
Идентификатор : 1
Формат : AVC
Формат/Информация : Advanced Video Codec
Профиль формата : High@L4.1
Параметр CABAC формата : Да
Параметр ReFrames формата : 6 кадров
Идентификатор кодека : V_MPEG4/ISO/AVC
Продолжительность : 1 ч. 10 м.
Битрейт : 1684 Кбит/сек
Ширина : 712 пикселей
Высота : 572 пикселя
Соотношение сторон : 4:3
Соотношение сторон в оригинале : 4:3
Частота кадров : 25,000 кадров/сек
Цветовое пространство : YUV
Субдискретизация насыщенности : 4:2:0
Битовая глубина : 8 бит
Тип развёртки : Прогрессивная
Бит/(Пиксели*Кадры) : 0.165
Размер потока : 827 Мбайт (77%)
Библиотека кодирования : x264 core 138 r2356 a1d3d17
Настройки программы : cabac=1 / ref=6 / deblock=1:-2:-1 / analyse=0x3:0x113 / me=umh / subme=10 / psy=1 / psy_rd=1.00:0.05 / mixed_ref=1 / me_range=32 / chroma_me=1 / trellis=2 / 8x8dct=1 / cqm=0 / deadzone=21,11 / fast_pskip=0 / chroma_qp_offset=-3 / threads=3 / lookahead_threads=1 / sliced_threads=0 / nr=0 / decimate=0 / interlaced=0 / bluray_compat=0 / constrained_intra=0 / bframes=8 / b_pyramid=2 / b_adapt=2 / b_bias=0 / direct=3 / weightb=1 / open_gop=0 / weightp=2 / keyint=250 / keyint_min=25 / scenecut=40 / intra_refresh=0 / rc=2pass / mbtree=0 / bitrate=1684 / ratetol=1.0 / qcomp=0.60 / qpmin=0 / qpmax=69 / qpstep=4 / cplxblur=20.0 / qblur=0.5 / ip_ratio=1.40 / pb_ratio=1.30 / aq=1:1.00
Default : Да
Forced : Нет

Аудио
Идентификатор : 2
Формат : AC-3
Формат/Информация : Audio Coding 3
Расширение режима : CM (complete main)
Идентификатор кодека : A_AC3
Продолжительность : 1 ч. 10 м.
Вид битрейта : Постоянный
Битрейт : 448 Кбит/сек
Каналы : 6 каналов
Расположение каналов : Front: L C R, Side: L R, LFE
Частота : 48,0 КГц
Битовая глубина : 16 бит
Метод сжатия : С потерями
Размер потока : 225 Мбайт (21%)
Default : Да
Forced : Нет



На 121-й минуте фильма перед зрителями крупным планом предстаёт книга А. Микулина «Активное долголетие». В этой сцене Сатанеев всерьёз озабочен проблемой омоложения, используя для этого все имеющиеся подручные средства, включая эту книгу.
Семён Фарада вспоминал, что его роль задумывалась как эпизодическая — гость с юга с четырьмя фразами. Но актёр сам придумал себе роль. Например, выдумал появление следов, когда его герой потерялся в лабиринтах коридора. Прямо в кадре выдал фразу: «Боже, как я похудел». Фразу, ставшую крылатой, «Ну кто так строит?!» предложил Семён Фарада после того, как однажды реально заблудился в телецентре и не мог найти съёмочную группу.
Идея белого костюма, в котором щеголял Александр Абдулов («Главное, чтобы костюмчик сидел!»), заимствована из фильма «Лихорадка субботнего вечера». В этом фильме в таком же костюме танцевал главный герой в исполнении Джона Траволты.
Э. Виторган, М. Светин и А. Абдулов свои песни в фильме поют сами. А вот за Александру Яковлеву (Алёна Санина), Екатерину Васильеву (Кира Шемаханская) и Аню Ашимову (девочка Нина Пухова) пели Ирина Отиева, Жанна Рождественская, Ольга Рождественская и Лариса Долина. На пластинке фирмы «Мелодия» с песнями из фильма «Чародеи» музыкальные номера записаны в том варианте, как они звучат в фильме, за исключением песни «Представь себе» — она записана в исполнении Л. Серебренникова (в фильме поёт Александр Абдулов).
Георгий Вицин озвучил говорящего кота Василия. Однако в итоговом монтаже почти вся роль кота была вырезана, остались всего два слова: «Хам!» и «Ура!». Вицин был ужасно расстроен.
Внутренние помещения НУИНУ снимали в здании телецентра Останкино. Режиссёр фильма Константин Бромберг однажды заблудился в нём и забрёл в часть здания, где обнаружил восьмипролётную мраморную лестницу с мозаикой и смальтой, о которой, как потом выяснил, все забыли. Внешний вид здания НУИНУ — Московская гостиница «Союз». Банкетный зал, где происходила финальная часть фильма, — Суздальский гостинично-туристический комплекс «Турцентр». Дом, где жила Алёна, снимали в Москве, по адресу Ленинский проспект, дом 144, корп.3. Кабинет Шемаханской снимался в зимнем саду, расположенном на верхнем этаже АСК-3 телецентра Останкино.
В фильме есть эпизод — когда Алёна летает на метле, она облетела здание «НУИНУ», и его показали снаружи. Выглядит это здание как гостиница «Союз» с двухскатной крышей, однако в реальности гостиница «Союз» двухскатной крыши не имеет. Были выполнены комбинированные съёмки: взяли здание гостиницы «Союз» и наверх «затащили» здание ГТК «Турцентр». Гибрид получился весьма удачным.
В Суздале снимался эпизод, как Иван проходит через стены. Съёмочная группа ожидала звёздной ночи. По воспоминаниям Семёна Фарады, когда началась съёмка, над съёмочной группой завис настоящий НЛО. Пока оператор Апрятин разворачивал стационарную камеру объективом вверх, объект исчез.
Некоторое эпизоды фильма снимались в ДК «ЗИЛ». Например, момент, где Камнеедов перепутал на стенах знаки препинания «Что ты сделал для науки!», снимался в зимнем саду, а место, где из дуба делали волшебную палочку и Ваня учился проходить сквозь стены, было снято за кулисами большой сцены ДК «ЗИЛ».
Проезд тройки лошадей по зимнему лесу снимали в московском Ботаническом саду.



   Похожие торренты   Торрент   Размер 
В этой теме нет новых непрочитанных сообщений. Чародеи (1982) DVDRip от New-Team

76 | 6

2.19 ГБ

В этой теме нет новых непрочитанных сообщений. Чародеи (1982) DVDRip от New-Team

99 | 9

1.46 ГБ

В этой теме нет новых непрочитанных сообщений. Чародеи (1982) DVDRip

146 | 8

1.46 ГБ

В этой теме нет новых непрочитанных сообщений. Чародеи (1982) DVDRip

29 | 5

2.91 ГБ

В этой теме нет новых непрочитанных сообщений. Чародеи (1982) DVDRip

324 | 21

2.19 ГБ

В этой теме нет новых непрочитанных сообщений. Чародеи (1982) DVDRip-AVC by 7lobiN

92 | 6

1.63 ГБ

В этой теме нет новых непрочитанных сообщений. Чародеи (1982) DVDRip от MediaClub

325 | 15

2.9 ГБ




Вы не можете начинать темы
Вы не можете отвечать на сообщения
Вы не можете редактировать свои сообщения
Вы не можете удалять свои сообщения
Вы не можете добавлять вложения

Перейти:  
Для Мосгорсуда, Роскомнадзора и рекламодателей: mosgorsud-torrent[собачка]yandex.ru
 Вход
ppkBB3cker v.2 © 2008-2014 @ PPK
[ Time : 0.027s | 16 Queries | GZIP : Off ]

Торрент трекер RUTOR.IN, Не можете зайти на rutor.org? Какой новый адрес рутор? Какое зеркало рутор? Не работает rutor.org и зеркала? Тогда наш торрент специально для вас. Rutor.in неофициальное зеркало rutor. В случае если у Вас заблокирован rutor или вдруг Вы не можете на него зайти, то Вы без труда сможете скачать бесплатно и без рекламы последние новинки кино, игр, сериалов и прочего у нас, на Rutor.in. Не нужно использовать прокси, чтобы зайти на рутор, достаточно воспользоваться нашим ресурсом. Все новые фильмы, игры, сериалы, книги и музыка за 2013 и 2014 годы через торрент бесплатно. Скачивайте фильмы в хорошем качестве, игры для пк, xbox, playstation без регистрации. У нас вы найдете новые Зарубежные сериалы и Русские сериалы 2013, 2014, 2015 годов. Оставайтесь с нами, качайте любимые фильмы, игры, сериалы, книги и музыку.