img image001 image001 image001 image001 image001 image001 image001 image001 image001 image001 image001 image001 image001 image001 image001

Planets Sun Sun Sun
Статистика раздачи
Автор: PriZraK | Размер: 1.37 ГБ | Добавлен: 15 фев 2014
Раздают: 32    Качают: 5
Скачать торрент
Скачать торрент
Описание торрента

СообщениеДобавлено: 15 фев 2014 




Оригинальное название: Три богатыря
Год выпуска: 2013
Жанр: Музыкальный, комедия, фантазия
Режиссер: Александр Игудин
В ролях: Анна Семенович, Ефим Шифрин, Алексей Воробьёв, Анастасия Стоцкая, Андрей Данилко, Юрий Гальцев, Юрий Стоянов, Михаил Боярский, Юрий Аскаров, Кристина Орбакайте, Филипп Киркоров

Описание: Иван-царевич мечтает жениться по любви на прекрасной Марье Искуснице. Но Царь намерен женить сына на заморской принцессе. Богатыри помогают Марье Искуснице бороться за сердце царевича Ивана. Вместе им предстоит выполнить задание царя и добыть перо Жар-птицы. А соперница, в свою очередь, прибегает к услугам Бабы-Яги.

Выпущено: Россия, "Медиапрофсоюз"
Продолжительность: 01:30:51
Язык: Русский

Качество: SATRip
Видео: XviD, 1957 Кбит/с, 720x400
Аудио rus: AC3, 2 ch, 192 Кбит/с

Полное имя : G:Tri.bogatyrja.2013.tahiy.avi
Формат : AVI
Формат/Информация : Audio Video Interleave
Размер файла : 1,37 Гбайт
Продолжительность : 1 ч. 30 м.
Общий поток : 2158 Кбит/сек
Название фильма : - = Rip by tahiy = -
Программа кодирования : VirtualDubMod 1.5.10.3 | www.virtualdub-fr.org || (build 2550/release)

Видео
Идентификатор : 0
Формат : MPEG-4 Visual
Профиль формата : Advanced Simple@L5
Параметр BVOP формата : 1
Параметр QPel формата : Нет
Параметр GMC формата : Без точки перехода
Параметр матрицы формата : Default (MPEG)
Идентификатор кодека : XVID
Идентификатор кодека/Подсказка : XviD
Продолжительность : 1 ч. 30 м.
Битрейт : 1957 Кбит/сек
Ширина : 720 пикселей
Высота : 400 пикселей
Соотношение сторон : 16:9
Частота кадров : 25,000 кадров/сек
Цветовое пространство : YUV
Субдискретизация насыщенности : 4:2:0
Битовая глубина : 8 бит
Тип развёртки : Прогрессивная
Метод сжатия : С потерями
Бит/(Пиксели*Кадры) : 0.272
Размер потока : 1,24 Гбайт (91%)
Библиотека кодирования : XviD 1.2.1 (UTC 2008-12-04)

Аудио
Идентификатор : 1
Формат : AC-3
Формат/Информация : Audio Coding 3
Расширение режима : CM (complete main)
Параметр Endianness формата : Big
Идентификатор кодека : 2000
Продолжительность : 1 ч. 30 м.
Вид битрейта : Постоянный
Битрейт : 192 Кбит/сек
Каналы : 2 канала
Расположение каналов : Front: L R
Частота : 48,0 КГц
Битовая глубина : 16 бит
Метод сжатия : С потерями
Размер потока : 125 Мбайт (9%)
Выравнивание : Разделение по промежуткам
Продолжительность промежутка : 40 мс. (1,00 видеокадр)
Время предзагрузки промежутка : 500 мс.






   Похожие торренты   Торрент   Размер 
В этой теме нет новых непрочитанных сообщений. Три богатыря (2013) SATRip

200 | 12

744.35 МБ

В этой теме нет новых непрочитанных сообщений. Три богатыря (2013) SATRip-AVC

51 | 5

1.46 ГБ

В этой теме нет новых непрочитанных сообщений. Versus: Хруст без Правил [01-83] + Три русских богатыря [01-06] (2009-2013) WEBRip

98 | 4

1.33 ГБ

В этой теме нет новых непрочитанных сообщений. Три богатыря: Ход Конем (2014) DVD-5

149 | 35

4.09 ГБ

В этой теме нет новых непрочитанных сообщений. Три богатыря и Шамаханская царица (2010) Blu-ray

5 | 33

18.01 ГБ

В этой теме нет новых непрочитанных сообщений. Три русских богатыря [01-06 из 06] (2012) WEBRip

43 | 4

196.76 МБ

В этой теме нет новых непрочитанных сообщений. Три Богатыря и Шамаханская царица (2010) PC

605 | 36

3.08 ГБ




Вы не можете начинать темы
Вы не можете отвечать на сообщения
Вы не можете редактировать свои сообщения
Вы не можете удалять свои сообщения
Вы не можете добавлять вложения

Перейти:  
Для Мосгорсуда, Роскомнадзора и рекламодателей: mosgorsud-torrent[собачка]yandex.ru
 Вход
ppkBB3cker v.2 © 2008-2014 @ PPK
[ Time : 0.024s | 14 Queries | GZIP : Off ]

Торрент трекер RUTOR.IN, Не можете зайти на rutor.org? Какой новый адрес рутор? Какое зеркало рутор? Не работает rutor.org и зеркала? Тогда наш торрент специально для вас. Rutor.in неофициальное зеркало rutor. В случае если у Вас заблокирован rutor или вдруг Вы не можете на него зайти, то Вы без труда сможете скачать бесплатно и без рекламы последние новинки кино, игр, сериалов и прочего у нас, на Rutor.in. Не нужно использовать прокси, чтобы зайти на рутор, достаточно воспользоваться нашим ресурсом. Все новые фильмы, игры, сериалы, книги и музыка за 2013 и 2014 годы через торрент бесплатно. Скачивайте фильмы в хорошем качестве, игры для пк, xbox, playstation без регистрации. У нас вы найдете новые Зарубежные сериалы и Русские сериалы 2013, 2014, 2015 годов. Оставайтесь с нами, качайте любимые фильмы, игры, сериалы, книги и музыку.