img image001 image001 image001 image001 image001 image001 image001 image001 image001 image001 image001 image001 image001 image001 image001

Planets Sun Sun Sun
Статистика раздачи
Автор: PriZraK | Размер: 2.05 ГБ | Добавлен: 15 фев 2014
Раздают: 206    Качают: 16
Скачать торрент
Скачать торрент
Описание торрента

СообщениеДобавлено: 15 фев 2014 


Джентльмены удачи / Dzhentlmeny udachi (1971) BDRip-AVC
Релиз от HQ-ViDEO



Жанр: Драма, Комедия, Криминал, Детектив
Год выхода: 1971

Режиссер: Александр Серый

В ролях: Савелий Крамаров, Анатолий Папанов, Раднэр Муратов, Любовь Соколова, Евгений Леонов, Павел Шпрингфельд, Наталья Фатеева, Эраст Гарин, Николай Олялин, Георгий Вицин ...

Описание: Заведующему детсадом Трошкину фатально не повезло: он оказался как две капли воды похож на бандита по кличке «Доцент», похитившего уникальный шлем Александра Македонского.
Милиция внедряет добряка Трошкина в воровскую среду - и ему ничего не остается, кроме как старательно изображать своего двойника-злодея, путая всех окружающих. Со временем он настолько блестяще входит в роль, что сам начинает порой приходить в ужас. Между тем, жизни его угрожает смертельная опасность...



Релиз:

Автор рипа: AngelOfTrue

Продолжительность: 01:26:43

Перевод: Оригинал (Русский)

Субтитры: Нет

Информация о файле:
Качество: BDRip-AVC (Исходник: Blu-ray 1080p AVC DTS-HD 5.1)
Формат: MKV
Видео: MPEG-4 AVC, x264, 802 x 610; 23.976 fps; 2930 kbps; 0.250 bit/pixel
Аудио: 48 kHz, AC3 Dolby Digital, 3/2 (L,C,R,l,r) + LFE ch, ~448.00 kbps avg


avs [info]: 802x610p 1:1 @ 2997/125 fps (cfr)
x264 [warning]: --psnr used with psy on: results will be invalid!
x264 [warning]: --tune psnr should be used if attempting to benchmark psnr!
x264 [info]: using SAR=1/1
x264 [info]: using cpu capabilities: MMX2 SSE2Fast SSSE3 SSE4.2 AVX AVX2 FMA3 LZCNT BMI1 BMI2
x264 [info]: profile High, level 3.1
x264 [info]: frame I:828 Avg QP:17.40 size: 79281 PSNR Mean Y:45.22 U:50.60 V:50.21 Avg:46.34 Global:46.02
x264 [info]: frame P:25486 Avg QP:19.95 size: 33866 PSNR Mean Y:42.88 U:48.83 V:48.48 Avg:44.08 Global:43.70
x264 [info]: frame B:98448 Avg QP:21.51 size: 9926 PSNR Mean Y:42.15 U:48.80 V:48.40 Avg:43.43 Global:43.03
x264 [info]: consecutive B-frames: 1.2% 1.1% 5.6% 19.9% 15.2% 55.1% 1.6% 0.1% 0.1%
x264 [info]: mb I I16..4: 0.7% 80.9% 18.5%
x264 [info]: mb P I16..4: 0.2% 10.9% 2.2% P16..4: 28.6% 36.8% 17.8% 2.8% 0.2% skip: 0.5%
x264 [info]: mb B I16..4: 0.1% 1.1% 0.4% B16..8: 34.5% 22.1% 4.3% direct: 7.1% skip:30.5% L0:36.7% L1:44.9% BI:18.5%
x264 [info]: 8x8 transform intra:77.9% inter:56.8%
x264 [info]: direct mvs spatial:99.9% temporal:0.1%
x264 [info]: coded y,uvDC,uvAC intra: 90.5% 80.5% 45.6% inter: 36.5% 20.8% 4.9%
x264 [info]: i16 v,h,dc,p: 19% 34% 3% 44%
x264 [info]: i8 v,h,dc,ddl,ddr,vr,hd,vl,hu: 13% 9% 6% 9% 13% 13% 12% 11% 12%
x264 [info]: i4 v,h,dc,ddl,ddr,vr,hd,vl,hu: 24% 28% 3% 5% 9% 9% 8% 7% 8%
x264 [info]: i8c dc,h,v,p: 29% 31% 25% 16%
x264 [info]: Weighted P-Frames: Y:19.6% UV:5.4%
x264 [info]: ref P L0: 46.0% 14.7% 17.0% 7.9% 5.9% 4.5% 3.4% 0.6% 0.0%
x264 [info]: ref B L0: 85.6% 8.2% 3.1% 1.7% 0.9% 0.5%
x264 [info]: ref B L1: 97.7% 2.3%
x264 [info]: SSIM Mean Y:0.9747152 (15.971db)
x264 [info]: PSNR Mean Y:42.318 U:48.819 V:48.433 Avg:43.581 Global:43.175 kb/s:2930.16



Format : Matroska
Format version : Version 4 / Version 2
File size : 2.05 GiB
Duration : 1h 26mn
Overall bit rate : 3 380 Kbps
Encoded date : UTC 2014-01-01 13:26:36
Writing application : mkvmerge v6.1.0 ('Old Devil') built on Mar 4 2013 09:10:42
Writing library : libebml v1.3.0 + libmatroska v1.4.0

Video
ID : 1
Format : AVC
Format/Info : Advanced Video Codec
Format profile : High@L3.1
Format settings, CABAC : Yes
Format settings, ReFrames : 7 frames
Codec ID : V_MPEG4/ISO/AVC
Duration : 1h 26mn
Bit rate : 2 930 Kbps
Width : 802 pixels
Height : 610 pixels
Display aspect ratio : 4:3
Frame rate : 23.976 fps
Color space : YUV
Chroma subsampling : 4:2:0
Bit depth : 8 bits
Scan type : Progressive
Bits/(Pixel*Frame) : 0.250
Stream size : 1.74 GiB (85%)
Title : Dzhentlmeny.Udachi.1971.RUS.BDRip-AVC.AC3.-HQ-ViDEO
Writing library : x264 core 130 r2273 b3065e6
Encoding settings : cabac=1 / ref=7 / deblock=1:-3:-2 / analyse=0x3:0x133 / me=umh / subme=11 / psy=1 / psy_rd=1.05:0.00 / mixed_ref=1 / me_range=32 / chroma_me=1 / trellis=2 / 8x8dct=1 / cqm=0 / deadzone=21,11 / fast_pskip=0 / chroma_qp_offset=-2 / threads=6 / lookahead_threads=1 / sliced_threads=0 / nr=0 / decimate=0 / interlaced=0 / bluray_compat=0 / constrained_intra=0 / bframes=8 / b_pyramid=2 / b_adapt=2 / b_bias=0 / direct=3 / weightb=1 / open_gop=0 / weightp=2 / keyint=240 / keyint_min=23 / scenecut=40 / intra_refresh=0 / rc_lookahead=60 / rc=2pass / mbtree=0 / bitrate=2930 / ratetol=1.0 / qcomp=0.65 / qpmin=0 / qpmax=69 / qpstep=4 / cplxblur=20.0 / qblur=0.5 / vbv_maxrate=14000 / vbv_bufsize=14000 / nal_hrd=none / ip_ratio=1.35 / pb_ratio=1.25 / aq=2:1.00
Language : Russian
Default : Yes
Forced : No
Color primaries : BT.709-5, BT.1361, IEC 61966-2-4, SMPTE RP177
Transfer characteristics : BT.709-5, BT.1361

Audio
ID : 2
Format : AC-3
Format/Info : Audio Coding 3
Mode extension : CM (complete main)
Codec ID : A_AC3
Duration : 1h 26mn
Bit rate mode : Constant
Bit rate : 448 Kbps
Channel(s) : 6 channels
Channel positions : Front: L C R, Side: L R, LFE
Sampling rate : 48.0 KHz
Bit depth : 16 bits
Compression mode : Lossy
Stream size : 278 MiB (13%)
Title : Original (russian)
Language : Russian
Default : Yes
Forced : No

Скриншоты для оценки качества:





ПРИЯТНОГО ПРОСМОТРА!



   Похожие торренты   Торрент   Размер 
В этой теме нет новых непрочитанных сообщений. Джентльмены удачи (1971) BDRip от HQ-ViDEO

67 | 15

1.45 ГБ

В этой теме нет новых непрочитанных сообщений. Джентльмены удачи (1971) BDRip 720p от HQ-ViDEO

38 | 6

4.37 ГБ

В этой теме нет новых непрочитанных сообщений. Джентльмены удачи (1971) BDRip-AVC

82 | 7

1.45 ГБ

В этой теме нет новых непрочитанных сообщений. Джентльмены удачи (1971) BDRip-AVC

98 | 19

2.05 ГБ

В этой теме нет новых непрочитанных сообщений. Джентльмены удачи (1971) BDRip-AVC от R.G. HD-Films | 60 fps

335 | 18

2.51 ГБ

В этой теме нет новых непрочитанных сообщений. Джентльмены удачи (1971) BDRip-AVC от New-Team

197 | 15

744.91 МБ

В этой теме нет новых непрочитанных сообщений. Джентльмены удачи (1971) BDRip от MediaClub | КПК

146 | 12

392 МБ




Вы не можете начинать темы
Вы не можете отвечать на сообщения
Вы не можете редактировать свои сообщения
Вы не можете удалять свои сообщения
Вы не можете добавлять вложения

Перейти:  
Для Мосгорсуда, Роскомнадзора и рекламодателей: mosgorsud-torrent[собачка]yandex.ru
 Вход
ppkBB3cker v.2 © 2008-2014 @ PPK
[ Time : 0.062s | 15 Queries | GZIP : Off ]

cron