img image001 image001 image001 image001 image001 image001 image001 image001 image001 image001 image001 image001 image001 image001 image001

Planets Sun Sun Sun
Статистика раздачи
Автор: PriZraK | Размер: 745.06 МБ | Добавлен: 15 фев 2014
Раздают: 124    Качают: 18
Скачать торрент
Скачать торрент
Описание торрента

СообщениеДобавлено: 15 фев 2014 



АНОНСЫ МОИХ РИПОВ! Подписываемся!


Домовой

#77
Страна: Россия
Год выпуска: 2008
Жанр: Триллер
Продолжительность: 01:44:39
Перевод: не требуется

Режиссер: Карен Оганесян

В ролях: Константин Хабенский, Владимир Машков, Чулпан Хаматова, Армен Джигарханян, Виталий Кищенко, Рамиль Сабитов, Ольга Сухорукова, Олег Чудницов, Олег Петровский, Александр Адабашьян

Описание: Автор бульварных детективов Антон Праченко переживает творческий кризис. Выйти из него ему весьма необычным способом помогает наемный убийца по прозвищу Домовой, который на его глазах безжалостно расстреливает машину с двумя людьми. Киллер становится его идейным вдохновителем, жестко и наглядно открывающим ему суровую правду жизни. Теперь они неразрывно связаны друг с другом…



Качество: DVDRip - Исходник DVD5
Формат: AVI
Видео кодек: XviD
Аудио кодек: MP3
Видео: 640x272 (2.35:1), 25 fps, XviD build 73 ~857 kbps avg, 0.20 bit/pixel
Аудио: 48 kHz, MPEG Layer 3, 2 ch, ~128.00 kbps avg

Раздача от:


D:Мои рипыDomovoy.2008.DVDRip.745mb.dexter_lex.avi
General
Complete name : D:Мои рипыDomovoy.2008.DVDRip.745mb.dexter_lex.avi
Format : AVI
Format/Info : Audio Video Interleave
File size : 745 MiB
Duration : 1h 44mn
Overall bit rate : 995 Kbps
Writing application : VirtualDubMod 1.5.10.3 | www.virtualdub-fr.org || (build 2550/release)
Writing library : VirtualDubMod build 2550/release
Video #0
ID : 0
Format : MPEG-4 Visual
Format profile : Advanced Simple@L5
Format settings, BVOP : 1
Format settings, QPel : No
Format settings, GMC : No warppoints
Format settings, Matrix : Custom
Codec ID : XVID
Codec ID/Hint : XviD
Duration : 1h 44mn
Bit rate : 858 Kbps
Width : 640 pixels
Height : 272 pixels
Display aspect ratio : 2.35:1
Frame rate : 25.000 fps
Color space : YUV
Chroma subsampling : 4:2:0
Bit depth : 8 bits
Scan type : Progressive
Compression mode : Lossy
Bits/(Pixel*Frame) : 0.197
Stream size : 642 MiB (86%)
Writing library : XviD 73
Audio #1
ID : 1
Format : MPEG Audio
Format version : Version 1
Format profile : Layer 3
Codec ID : 55
Codec ID/Hint : MP3
Duration : 1h 44mn
Bit rate mode : Constant
Bit rate : 128 Kbps
Channel(s) : 2 channels
Sampling rate : 48.0 KHz
Compression mode : Lossy
Stream size : 95.8 MiB (13%)
Alignment : Aligned on interleaves
Interleave, duration : 40 ms (1.00 video frame)
Interleave, preload duration : 504 ms
Writing library : LAME3.99r
Encoding settings : -m s -V 4 -q 2 -lowpass 17 -b 128




   Похожие торренты   Торрент   Размер 
В этой теме нет новых непрочитанных сообщений. Домовой (2008) DVDRip от New-Team

156 | 21

1.46 ГБ

В этой теме нет новых непрочитанных сообщений. Домовой (2008) DVDRip

3 | 7

699.77 МБ

В этой теме нет новых непрочитанных сообщений. Домовой (2008) DVDRip-AVC

198 | 18

1.37 ГБ

В этой теме нет новых непрочитанных сообщений. Домовой (2008) DVDRip

353 | 17

1.37 ГБ

В этой теме нет новых непрочитанных сообщений. Домовой (2008) DVD5

14 | 4

4.16 ГБ

В этой теме нет новых непрочитанных сообщений. Домовой (2008) DVD9

26 | 15

6.77 ГБ

В этой теме нет новых непрочитанных сообщений. Домовой и хозяйка (1988) от ExKinoRay

20 | 8

165.44 МБ




Вы не можете начинать темы
Вы не можете отвечать на сообщения
Вы не можете редактировать свои сообщения
Вы не можете удалять свои сообщения
Вы не можете добавлять вложения

Перейти:  
Для Мосгорсуда, Роскомнадзора и рекламодателей: mosgorsud-torrent[собачка]yandex.ru
 Вход
ppkBB3cker v.2 © 2008-2014 @ PPK
[ Time : 0.226s | 14 Queries | GZIP : Off ]

Торрент трекер RUTOR.IN, Не можете зайти на rutor.org? Какой новый адрес рутор? Какое зеркало рутор? Не работает rutor.org и зеркала? Тогда наш торрент специально для вас. Rutor.in неофициальное зеркало rutor. В случае если у Вас заблокирован rutor или вдруг Вы не можете на него зайти, то Вы без труда сможете скачать бесплатно и без рекламы последние новинки кино, игр, сериалов и прочего у нас, на Rutor.in. Не нужно использовать прокси, чтобы зайти на рутор, достаточно воспользоваться нашим ресурсом. Все новые фильмы, игры, сериалы, книги и музыка за 2013 и 2014 годы через торрент бесплатно. Скачивайте фильмы в хорошем качестве, игры для пк, xbox, playstation без регистрации. У нас вы найдете новые Зарубежные сериалы и Русские сериалы 2013, 2014, 2015 годов. Оставайтесь с нами, качайте любимые фильмы, игры, сериалы, книги и музыку.