img image001 image001 image001 image001 image001 image001 image001 image001 image001 image001 image001 image001 image001 image001 image001

Planets Sun Sun Sun
Статистика раздачи
Автор: PriZraK | Размер: 1.46 ГБ | Добавлен: 15 фев 2014
Раздают: 183    Качают: 21
Скачать торрент
Скачать торрент
Описание торрента

СообщениеДобавлено: 15 фев 2014 


#77
Страна: СССР
Производство: Гостелерадио, Мосфильм

Жанр: мюзикл, мелодрама, комедия
Год выпуска: 1982
Продолжительность: 2:23:32 (01:09:45 + 01:13:47)

Перевод: не требуется
Оригинальная аудиодорожка: русский
Cубтитры: нет

Режиссер: Светлана Дружинина

В ролях:
Игорь Кеблушек, Наталья Белохвостикова, Елена Шанина, Юрий Мороз, Николай Трофимов, Владимир Басов, Людмила Касаткина, Александр Ширвиндт, Людмила Шагалова, Эммануил Геллер...

Описание:
Весь город стремится в цирк, чтобы увидеть смертельный номер знаменитого артиста в маске, таинственного мистера Икс. Среди гостей — богатая вдова, графиня Палинская, ради которой любой мужчина готов совершить подвиг. Но лишь загадочный Икс способен разжечь пламя любви в сердце непреклонной графини…





Исходник: DVD9 R5
Тип релиза: DVDRip
Контейнер: AVI

Видео: 704x528 (4:3), 25 fps, XviD ~ 1314 kbps avg, 0.141 bit/pixel
Аудио: 48 kHz, MP3 2.0, 128 kbps

Раздача от:
Общее
Полное имя : Princessa.cirka.1982.DVDRip-1.46_[New-team]_by_AVP_Studio.avi
Формат : AVI
Формат/Информация : Audio Video Interleave
Размер файла : 766 Мбайт
Продолжительность : 1 ч. 13 м.
Общий поток : 1452 Кбит/сек
Программа кодирования : VirtualDubModRus 1.5.10.2 (build 2542/release)
Библиотека кодирования : VirtualDubMod build 2542/release

Видео
Идентификатор : 0
Формат : MPEG-4 Visual
Профиль формата : Advanced Simple@L5
Параметр BVOP формата : 1
Параметр QPel формата : Нет
Параметр GMC формата : Без точки перехода
Параметр матрицы формата : Выборочная
Идентификатор кодека : XVID
Идентификатор кодека/Подсказка : XviD
Продолжительность : 1 ч. 13 м.
Битрейт : 1314 Кбит/сек
Ширина : 704 пикселя
Высота : 528 пикселей
Соотношение сторон : 4:3
Частота кадров : 25,000 кадров/сек
Цветовое пространство : YUV
Субдискретизация насыщенности : 4:2:0
Битовая глубина : 8 бит
Тип развёртки : Прогрессивная
Метод сжатия : С потерями
Бит/(Пиксели*Кадры) : 0.141
Размер потока : 694 Мбайт (91%)
Библиотека кодирования : XviD 73

Аудио
Идентификатор : 1
Формат : MPEG Audio
Версия формата : Version 1
Профиль формата : Layer 3
Идентификатор кодека : 55
Идентификатор кодека/Подсказка : MP3
Продолжительность : 1 ч. 13 м.
Вид битрейта : Постоянный
Битрейт : 128 Кбит/сек
Каналы : 2 канала
Частота : 48,0 КГц
Метод сжатия : С потерями
Размер потока : 67,5 Мбайт (9%)
Выравнивание : Соединение по промежуткам
Продолжительность промежутка : 40 мс. (1,00 видеокадр)
Время предзагрузки промежутка : 504 мс.
Библиотека кодирования : LAME3.99r
Настройки программы : -m s -V 4 -q 2 -lowpass 17 -b 128



«Принцесса цирка» — художественный фильм. Экранизация одноимённой оперетты Имре Кальмана. Ремейк фильма «Мистер Икс» 1958 года. Премьера на ЦТ - декабрь 1982 г.



   Похожие торренты   Торрент   Размер 
В этой теме нет новых непрочитанных сообщений. Принцесса цирка (1982) DVDRip от New-Team

19 | 3

2.18 ГБ

В этой теме нет новых непрочитанных сообщений. Принцесса цирка (1982) DVDRip-AVC от New-Team

64 | 13

2.19 ГБ

В этой теме нет новых непрочитанных сообщений. Принцесса цирка (1979) DVDRip

26 | 2

2.18 ГБ

В этой теме нет новых непрочитанных сообщений. Маленькая принцесса / The Little Princess (1939) DVDRip от New-Team

71 | 20

1.59 ГБ

В этой теме нет новых непрочитанных сообщений. Обнаженная Принцесса / Голая Принцесса / The Nude Princess / La Principessa Nuda (1976) DVDRip от KinoRay & Sheikn | L1

117 | 30

699.94 МБ

В этой теме нет новых непрочитанных сообщений. Сашка (1982) DVDRip от New-Team

9 | 4

744.53 МБ

В этой теме нет новых непрочитанных сообщений. Сашка (1982) DVDRip от New-Team

9 | 6

1.46 ГБ




Вы не можете начинать темы
Вы не можете отвечать на сообщения
Вы не можете редактировать свои сообщения
Вы не можете удалять свои сообщения
Вы не можете добавлять вложения

Перейти:  
Для Мосгорсуда, Роскомнадзора и рекламодателей: mosgorsud-torrent[собачка]yandex.ru
 Вход
ppkBB3cker v.2 © 2008-2014 @ PPK
[ Time : 0.113s | 14 Queries | GZIP : Off ]
CGP output time : 0.153s | 5 Queries | GZIP : Off

Торрент трекер RUTOR.IN, Не можете зайти на rutor.org? Какой новый адрес рутор? Какое зеркало рутор? Не работает rutor.org и зеркала? Тогда наш торрент специально для вас. Rutor.in неофициальное зеркало rutor. В случае если у Вас заблокирован rutor или вдруг Вы не можете на него зайти, то Вы без труда сможете скачать бесплатно и без рекламы последние новинки кино, игр, сериалов и прочего у нас, на Rutor.in. Не нужно использовать прокси, чтобы зайти на рутор, достаточно воспользоваться нашим ресурсом. Все новые фильмы, игры, сериалы, книги и музыка за 2013 и 2014 годы через торрент бесплатно. Скачивайте фильмы в хорошем качестве, игры для пк, xbox, playstation без регистрации. У нас вы найдете новые Зарубежные сериалы и Русские сериалы 2013, 2014, 2015 годов. Оставайтесь с нами, качайте любимые фильмы, игры, сериалы, книги и музыку.