img image001 image001 image001 image001 image001 image001 image001 image001 image001 image001 image001 image001 image001 image001 image001

Planets Sun Sun Sun
Статистика раздачи
Автор: PriZraK | Размер: 747.02 МБ | Добавлен: 15 фев 2014
Раздают: 286    Качают: 8
Скачать торрент
Скачать торрент
Описание торрента

СообщениеДобавлено: 15 фев 2014 


#77

Информация о фильме
Название: Страна хороших деточек
Год выхода: 2013
Жанр: Детский, приключения, семейный
Режиссер: Ольга Каптур
В ролях: Кира Флейшер, Вячеслав Манучаров, Наталья Селезнёва, Владимир Грамматиков, Андрей Кайков, Ирина Пегова, Дмитрий Назаров, Евгений Воскресенский, Ивонн Каттерфельд, Дарья Андреева

О фильме:
Девочка Саша была весёлой, но не очень хорошей девочкой. Она жила с бабушкой, дедушкой, мамой, папой, псом Балбесом и котом Багетом. Однажды в новогоднюю ночь по загаданному в сердцах желанию родителей Саша была отправлена волшебником в Страну Хороших Деточек на перевоспитание. Только действительно ли так хороша эта страна?
Страна: Россия
Студия: Новые люди
Продолжительность: 01:18:48
Перевод: Оригинал (Русский)
сценарийАнна Старобинец
ПродюсерНаталья Мокрицкая, Александр Ковтунец, Ульяна Савельева, ...
ОператорАндрей Найденов
КомпозиторАлександр Маноцков
ХудожникУльяна Рябова, Анна Чистова, Яков Макаров, ...
МонтажНаталья Кучеренко
Бюджет$3 500 000
Маркетинг$1 500 000
сборы в России$75 055 сборы

Премьера (РФ)19 декабря 2013, «Вольга»
Релиз на DVD30 декабря 2013, «Вольга», ...
Возраст0+ (для любой зрительской аудитории)

Файл
Кодек: XviD build 73
Качество: WEB-DLRip (HDRip) Исходник(WEBDL 1080)
Видео: 720x400 (1.80:1), 23.976 fps, XviD build 73 ~1187 kbps avg, 0.17 bit/pixel
Звук: 48 kHz, AC3 Dolby Digital, 2/0 (L,R) ch, ~128 kbps
Субтитры: Отсутствуют
Общее
Полное имя : C:UsersDeadmauvladDesktopРелизы На выкладкуГотовоеСтрана.хороших деточек.2013.HDRip.Deadmauvlad.avi
Формат : AVI
Формат/Информация : Audio Video Interleave
Размер файла : 747 Мбайт
Продолжительность : 1 ч. 18 м.
Общий поток : 1325 Кбит/сек
Название фильма : Страна.хороших деточек.2013.HDRip.Deadmauvlad / Страна.хороших деточек.2013.HDRip.Deadmauvlad
Режиссёр : Deadmauvlad / Deadmauvlad
Жанр : 0+ / 0+
Программа кодирования : VirtualDubMod 1.5.10.3 | www.virtualdub-fr.org || (build 2550/release)
Формат оригинала/Имя : Фильм / Фильм
Правообладатель : Goldenshara / Goldenshara
Примечание : Девочка Саша была весёлой, но не очень хорошей девочкой. Она жила с бабушкой, дедушкой, мамой, папой, псом Балбесом и котом Багетом. Однажды в новогоднюю ночь по загаданному в сердцах желанию родителей Саша была отправлена волшебником в Страну Хороших Дет / Девочка Саша была весёлой, но не очень хорошей девочкой. Она жила с бабушкой, дедушкой, мамой, папой, псом Балбесом и котом Багетом. Однажды в новогоднюю ночь по загаданному в сердцах желанию родителей Саша была отправлена волшебником в Страну Хороших Дет

Видео
Идентификатор : 0
Формат : MPEG-4 Visual
Профиль формата : Advanced Simple@L5
Параметр BVOP формата : 2
Параметр QPel формата : Нет
Параметр GMC формата : Без точки перехода
Параметр матрицы формата : Default (MPEG)
Идентификатор кодека : XVID
Идентификатор кодека/Подсказка : XviD
Продолжительность : 1 ч. 18 м.
Битрейт : 1188 Кбит/сек
Ширина : 720 пикселей
Высота : 400 пикселей
Соотношение сторон : 16:9
Частота кадров : 23,976 кадра/сек
Цветовое пространство : YUV
Субдискретизация насыщенности : 4:2:0
Битовая глубина : 8 бит
Тип развёртки : Прогрессивная
Метод сжатия : С потерями
Бит/(Пиксели*Кадры) : 0.172
Размер потока : 670 Мбайт (90%)
Библиотека кодирования : XviD 73

Аудио
Идентификатор : 1
Формат : AC-3
Формат/Информация : Audio Coding 3
Расширение режима : CM (complete main)
Параметр Endianness формата : Big
Идентификатор кодека : 2000
Продолжительность : 1 ч. 18 м.
Вид битрейта : Постоянный
Битрейт : 128 Кбит/сек
Каналы : 2 канала
Расположение каналов : Front: L R
Частота : 48,0 КГц
Битовая глубина : 16 бит
Метод сжатия : С потерями
Размер потока : 72,2 Мбайт (10%)
Выравнивание : Соединение по промежуткам
Продолжительность промежутка : 42 мс. (1,00 видеокадр)
Время предзагрузки промежутка : 512 мс.


Семпл



Релиз от: Deadmauvlad



   Похожие торренты   Торрент   Размер 
В этой теме нет новых непрочитанных сообщений. Страна хороших деточек (2013) WEB-DLRip от -=HD-NET=- | КПК | iTunes

95 | 4

299.31 МБ

В этой теме нет новых непрочитанных сообщений. Страна хороших деточек (2013) WEB-DL 720p | iTunes

214 | 11

2.46 ГБ

В этой теме нет новых непрочитанных сообщений. Страна хороших деточек (2013) WEB-DLRip от New-Team

190 | 10

1.45 ГБ

В этой теме нет новых непрочитанных сообщений. Страна хороших деточек (2013) DVD-5

112 | 7

3.64 ГБ

В этой теме нет новых непрочитанных сообщений. Страна хороших деточек (2013) DVDRip

178 | 13

744.65 МБ

В этой теме нет новых непрочитанных сообщений. Страна хороших деточек (2013) HDTV 1080i от MediaClub

104 | 10

5.26 ГБ

В этой теме нет новых непрочитанных сообщений. Большая страна [Эфир от 20.10] (2014) DVB от Deadmauvlad

13 | 9

1.11 ГБ




Вы не можете начинать темы
Вы не можете отвечать на сообщения
Вы не можете редактировать свои сообщения
Вы не можете удалять свои сообщения
Вы не можете добавлять вложения

Перейти:  
Для Мосгорсуда, Роскомнадзора и рекламодателей: mosgorsud-torrent[собачка]yandex.ru
 Вход
ppkBB3cker v.2 © 2008-2014 @ PPK
[ Time : 0.039s | 16 Queries | GZIP : Off ]

cron