img image001 image001 image001 image001 image001 image001 image001 image001 image001 image001 image001 image001 image001 image001 image001

Planets Sun Sun Sun
Статистика раздачи
Автор: PriZraK | Размер: 745.06 МБ | Добавлен: 15 фев 2014
Раздают: 84    Качают: 7
Скачать торрент
Скачать торрент
Описание торрента

СообщениеДобавлено: 15 фев 2014 



АНОНСЫ МОИХ РИПОВ! Подписываемся!

Человек–амфибия

#77
Страна: СССР
Студия: Ленфильм
Жанр: фантастика, мелодрама
Год выпуска: 1961
Продолжительность: 01:36:21

Перевод: Не требуется
Cубтитры: нет

Режиссер: Геннадий Казанский, Владимир Чеботарев

В ролях: Владимир Коренев, Анастасия Вертинская, Михаил Козаков, Николай Симонов, Владлен Давыдов, Анатолий Смиранин, Анатолий Иванов, Валерий Кудряшов, Николай Кузьмин

Описание: Однажды талантливый ученый доктор Сальватор спас жизнь маленькому мальчику, пересадив ему жабры акулы. С этого дня Ихтиандр, так назвал своего приемного сына ученый, мог плавать под водой, как рыба, нырять на любую глубину, но ему было тяжело подолгу находиться на суше... Годы спустя по тихому морскому городу поползли слухи о странном существе, наводящем ужас на всех рыбаков, o «морском дьяволе». В это же самое время в городе появляется молодой человек, который мало общается с людьми и прекрасно плавает. Он знакомится с дочерью бедного ныряльщика за жемчугом, красавицей Гутиэре и без памяти в нее влюбляется...

Доп. информация: Полная реставрация изображения и звука. Исходные киноматериалы подготовлены Госфильмофондом России. Покадровая цифровая реставрация изображения, ремастеринг звука и авторинг проведены объединением «Крупный план».



Качество: HDRip - Исходник BDRip 1080p
Контейнер: AVI
Видео кодек: XviD
Аудио кодек: MP3
Видео: 592x432 (1.37:1), 23.976 fps, XviD build 73 ~943 kbps avg, 0.15 bit/pixel
Аудио: 48 kHz, MPEG Layer 3, 2 ch, ~128.00 kbps avg

Раздача от:


D:Мои рипыЧеловек-амфибия.1961.HDRip.745mb.dexter_lex.avi
General
Complete name : D:Мои рипыЧеловек-амфибия.1961.HDRip.745mb.dexter_lex.avi
Format : AVI
Format/Info : Audio Video Interleave
File size : 745 MiB
Duration : 1h 36mn
Overall bit rate : 1 081 Kbps
Writing application : VirtualDubMod 1.5.10.3 | www.virtualdub-fr.org || (build 2550/release)
Writing library : VirtualDubMod build 2550/release
Video #0
ID : 0
Format : MPEG-4 Visual
Format profile : Advanced Simple@L5
Format settings, BVOP : 1
Format settings, QPel : No
Format settings, GMC : No warppoints
Format settings, Matrix : Custom
Codec ID : XVID
Codec ID/Hint : XviD
Duration : 1h 36mn
Bit rate : 944 Kbps
Width : 592 pixels
Height : 432 pixels
Display aspect ratio : 1.370
Frame rate : 23.976 fps
Color space : YUV
Chroma subsampling : 4:2:0
Bit depth : 8 bits
Scan type : Progressive
Compression mode : Lossy
Bits/(Pixel*Frame) : 0.154
Stream size : 650 MiB (87%)
Writing library : XviD 73
Audio #1
ID : 1
Format : MPEG Audio
Format version : Version 1
Format profile : Layer 3
Codec ID : 55
Codec ID/Hint : MP3
Duration : 1h 36mn
Bit rate mode : Constant
Bit rate : 128 Kbps
Channel(s) : 2 channels
Sampling rate : 48.0 KHz
Compression mode : Lossy
Stream size : 88.2 MiB (12%)
Alignment : Aligned on interleaves
Interleave, duration : 42 ms (1.00 video frame)
Interleave, preload duration : 504 ms
Writing library : LAME3.99r
Encoding settings : -m s -V 4 -q 2 -lowpass 17 -b 128




   Похожие торренты   Торрент   Размер 
В этой теме нет новых непрочитанных сообщений. Человек–амфибия (1961) HDRip от New-Team

100 | 16

1.46 ГБ

В этой теме нет новых непрочитанных сообщений. Человек-амфибия (1961) Blu-Ray

2 | 6

33.17 ГБ

В этой теме нет новых непрочитанных сообщений. Человек-амфибия (1961) BDRemux

4 | 6

17.9 ГБ

В этой теме нет новых непрочитанных сообщений. Человек-амфибия (1961) BDRip 720p

0 | 4

4.65 ГБ

В этой теме нет новых непрочитанных сообщений. Человек-амфибия (1961) BDRip 1080p

45 | 31

8.12 ГБ

В этой теме нет новых непрочитанных сообщений. Человек-амфибия (1961) BDRip-AVC от ExKinoRay

4 | 3

1.37 ГБ

В этой теме нет новых непрочитанных сообщений. Человек-амфибия (1961) BDRip от HELLYWOOD

650 | 21

1.45 ГБ




Вы не можете начинать темы
Вы не можете отвечать на сообщения
Вы не можете редактировать свои сообщения
Вы не можете удалять свои сообщения
Вы не можете добавлять вложения

Перейти:  
Для Мосгорсуда, Роскомнадзора и рекламодателей: mosgorsud-torrent[собачка]yandex.ru
 Вход
ppkBB3cker v.2 © 2008-2014 @ PPK
[ Time : 0.022s | 14 Queries | GZIP : Off ]

Торрент трекер RUTOR.IN, Не можете зайти на rutor.org? Какой новый адрес рутор? Какое зеркало рутор? Не работает rutor.org и зеркала? Тогда наш торрент специально для вас. Rutor.in неофициальное зеркало rutor. В случае если у Вас заблокирован rutor или вдруг Вы не можете на него зайти, то Вы без труда сможете скачать бесплатно и без рекламы последние новинки кино, игр, сериалов и прочего у нас, на Rutor.in. Не нужно использовать прокси, чтобы зайти на рутор, достаточно воспользоваться нашим ресурсом. Все новые фильмы, игры, сериалы, книги и музыка за 2013 и 2014 годы через торрент бесплатно. Скачивайте фильмы в хорошем качестве, игры для пк, xbox, playstation без регистрации. У нас вы найдете новые Зарубежные сериалы и Русские сериалы 2013, 2014, 2015 годов. Оставайтесь с нами, качайте любимые фильмы, игры, сериалы, книги и музыку.