img image001 image001 image001 image001 image001 image001 image001 image001 image001 image001 image001 image001 image001 image001 image001

Planets Sun Sun Sun
Статистика раздачи
Автор: PriZraK | Размер: 2.07 ГБ | Добавлен: 15 фев 2014
Раздают: 19    Качают: 4
Скачать торрент
Скачать торрент
Описание торрента

СообщениеДобавлено: 15 фев 2014 


Тариф Новогодний / Tarif Novogodniy (2008) BDRip-AVC
Релиз от HQ-ViDEO



Жанр: Фэнтези, Комедия
Год выхода: 2008

Режиссер: Евгений Бедарев

В ролях: Валерия Ланская, Максим Матвеев, Михаил Пореченков, Валерий Меладзе, Евгений Славский, Дмитрий Дюжев, Роман Полянский, Мария Аронова, Мирослава Карпович, Екатерина Маликова ...

Описание: Новогодняя ночь всегда полна чудес и сюрпризов. Чудеса нашего времени часто происходят благодаря техническому прогрессу, хотя и не без участия Деда Мороза, который нынче может оказаться простым продавцом телефона Мечты...



Релиз:

Автор рипа: AngelOfTrue

Продолжительность: 01:26:08

Перевод: Оригинал (Русский)

Субтитры: Нет

Информация о файле:
Качество: BDRip-AVC (Исходник: Blu-ray 1080p AVC DTS-HD 7.1)
Формат: MKV
Видео: MPEG-4 AVC, x264, 998 x 424; 23.976 fps; 2999 kbps; 0.296 bit/pixel
Аудио: 48 kHz, AC3 Dolby Digital, 3/2 (L,C,R,l,r) + LFE ch, ~448.00 kbps avg


avs [info]: 998x424p 1:1 @ 2997/125 fps (cfr)
x264 [warning]: --psnr used with psy on: results will be invalid!
x264 [warning]: --tune psnr should be used if attempting to benchmark psnr!
x264 [info]: using SAR=1/1
x264 [info]: using cpu capabilities: MMX2 SSE2Fast SSSE3 SSE4.2 AVX AVX2 FMA3 LZCNT BMI1 BMI2
x264 [info]: profile High, level 3.2
x264 [info]: frame I:1038 Avg QP:20.01 size: 72829 PSNR Mean Y:42.77 U:45.41 V:45.98 Avg:43.53 Global:42.99
x264 [info]: frame P:27515 Avg QP:23.08 size: 29826 PSNR Mean Y:40.35 U:43.82 V:44.43 Avg:41.26 Global:40.66
x264 [info]: frame B:95359 Avg QP:24.53 size: 10913 PSNR Mean Y:39.49 U:43.37 V:44.00 Avg:40.47 Global:39.86
x264 [info]: consecutive B-frames: 1.8% 2.1% 7.6% 31.3% 19.0% 28.9% 3.8% 3.2% 1.5% 0.4% 0.2% 0.0% 0.1%
x264 [info]: mb I I16..4: 2.0% 78.4% 19.6%
x264 [info]: mb P I16..4: 0.6% 14.9% 2.4% P16..4: 27.6% 34.3% 15.8% 2.7% 0.3% skip: 1.4%
x264 [info]: mb B I16..4: 0.1% 1.7% 0.3% B16..8: 36.9% 23.7% 5.6% direct: 7.8% skip:24.0% L0:40.6% L1:43.8% BI:15.6%
x264 [info]: 8x8 transform intra:82.2% inter:60.1%
x264 [info]: direct mvs spatial:98.7% temporal:1.3%
x264 [info]: coded y,uvDC,uvAC intra: 93.2% 91.3% 69.3% inter: 37.5% 32.1% 12.1%
x264 [info]: i16 v,h,dc,p: 27% 19% 3% 50%
x264 [info]: i8 v,h,dc,ddl,ddr,vr,hd,vl,hu: 10% 8% 5% 11% 15% 14% 14% 11% 12%
x264 [info]: i4 v,h,dc,ddl,ddr,vr,hd,vl,hu: 12% 8% 3% 9% 16% 15% 14% 11% 12%
x264 [info]: i8c dc,h,v,p: 38% 20% 19% 22%
x264 [info]: Weighted P-Frames: Y:5.1% UV:3.1%
x264 [info]: ref P L0: 47.9% 9.4% 17.1% 7.3% 5.3% 3.9% 3.1% 1.9% 1.6% 1.3% 1.0% 0.1% 0.0%
x264 [info]: ref B L0: 77.0% 10.7% 4.7% 2.4% 1.7% 1.3% 1.0% 0.6% 0.4% 0.2%
x264 [info]: ref B L1: 94.5% 5.5%
x264 [info]: SSIM Mean Y:0.9575485 (13.721db)
x264 [info]: PSNR Mean Y:39.713 U:43.488 V:44.117 Avg:40.667 Global:40.045 kb/s:2998.24



Format : Matroska
Format version : Version 4 / Version 2
File size : 2.07 GiB
Duration : 1h 26mn
Overall bit rate : 3 448 Kbps
Encoded date : UTC 2014-01-07 04:16:42
Writing application : mkvmerge v6.1.0 ('Old Devil') built on Mar 4 2013 09:10:42
Writing library : libebml v1.3.0 + libmatroska v1.4.0

Video
ID : 1
Format : AVC
Format/Info : Advanced Video Codec
Format profile : High@L3.2
Format settings, CABAC : Yes
Format settings, ReFrames : 11 frames
Codec ID : V_MPEG4/ISO/AVC
Duration : 1h 26mn
Bit rate : 2 999 Kbps
Width : 998 pixels
Height : 424 pixels
Display aspect ratio : 2.35:1
Frame rate : 23.976 fps
Color space : YUV
Chroma subsampling : 4:2:0
Bit depth : 8 bits
Scan type : Progressive
Bits/(Pixel*Frame) : 0.296
Stream size : 1.76 GiB (85%)
Title : Tarif.Novogodnii.2008.RUS.BDRip-AVC.AC3.-HQ-ViDEO
Writing library : x264 core 130 r2273 b3065e6
Encoding settings : cabac=1 / ref=11 / deblock=1:-3:-2 / analyse=0x3:0x133 / me=umh / subme=11 / psy=1 / psy_rd=1.00:0.00 / mixed_ref=1 / me_range=32 / chroma_me=1 / trellis=2 / 8x8dct=1 / cqm=0 / deadzone=21,11 / fast_pskip=0 / chroma_qp_offset=-2 / threads=6 / lookahead_threads=1 / sliced_threads=0 / nr=0 / decimate=0 / interlaced=0 / bluray_compat=0 / constrained_intra=0 / bframes=12 / b_pyramid=2 / b_adapt=2 / b_bias=0 / direct=3 / weightb=1 / open_gop=0 / weightp=2 / keyint=240 / keyint_min=23 / scenecut=40 / intra_refresh=0 / rc_lookahead=60 / rc=2pass / mbtree=0 / bitrate=2999 / ratetol=1.0 / qcomp=0.65 / qpmin=0 / qpmax=69 / qpstep=4 / cplxblur=20.0 / qblur=0.5 / vbv_maxrate=20000 / vbv_bufsize=20000 / nal_hrd=none / ip_ratio=1.35 / pb_ratio=1.25 / aq=2:1.00
Language : Russian
Default : Yes
Forced : No
Color primaries : BT.709-5, BT.1361, IEC 61966-2-4, SMPTE RP177
Transfer characteristics : BT.709-5, BT.1361

Audio
ID : 2
Format : AC-3
Format/Info : Audio Coding 3
Mode extension : CM (complete main)
Codec ID : A_AC3
Duration : 1h 26mn
Bit rate mode : Constant
Bit rate : 448 Kbps
Channel(s) : 6 channels
Channel positions : Front: L C R, Side: L R, LFE
Sampling rate : 48.0 KHz
Bit depth : 16 bits
Compression mode : Lossy
Stream size : 276 MiB (13%)
Title : Russian
Language : Russian
Default : Yes
Forced : No

Скриншоты для оценки качества:




ПРИЯТНОГО ПРОСМОТРА!



   Похожие торренты   Торрент   Размер 
В этой теме нет новых непрочитанных сообщений. Тариф Новогодний (2008) BDRip от HQ-ViDEO

57 | 2

1.46 ГБ

В этой теме нет новых непрочитанных сообщений. Тариф Новогодний (2008) BDRip от M.I.B

1 | 3

1.46 ГБ

В этой теме нет новых непрочитанных сообщений. Тариф Новогодний (2008) BDRip от HELLYWOOD

30 | 5

1.45 ГБ

В этой теме нет новых непрочитанных сообщений. Тариф Новогодний (2008) BDRip от ivandubskoj

768 | 24

1.46 ГБ

В этой теме нет новых непрочитанных сообщений. Тариф Новогодний (2008) BDRip-AVC от potroks

387 | 21

2.2 ГБ

В этой теме нет новых непрочитанных сообщений. Тариф Новогодний (2008) BDRip 1080p

1 | 6

4.37 ГБ

В этой теме нет новых непрочитанных сообщений. Тариф Новогодний (2008) BDRip от HQCLUB

7 | 4

1.45 ГБ




Вы не можете начинать темы
Вы не можете отвечать на сообщения
Вы не можете редактировать свои сообщения
Вы не можете удалять свои сообщения
Вы не можете добавлять вложения

Перейти:  
Для Мосгорсуда, Роскомнадзора и рекламодателей: mosgorsud-torrent[собачка]yandex.ru
 Вход
ppkBB3cker v.2 © 2008-2014 @ PPK
[ Time : 0.024s | 14 Queries | GZIP : Off ]

Торрент трекер RUTOR.IN, Не можете зайти на rutor.org? Какой новый адрес рутор? Какое зеркало рутор? Не работает rutor.org и зеркала? Тогда наш торрент специально для вас. Rutor.in неофициальное зеркало rutor. В случае если у Вас заблокирован rutor или вдруг Вы не можете на него зайти, то Вы без труда сможете скачать бесплатно и без рекламы последние новинки кино, игр, сериалов и прочего у нас, на Rutor.in. Не нужно использовать прокси, чтобы зайти на рутор, достаточно воспользоваться нашим ресурсом. Все новые фильмы, игры, сериалы, книги и музыка за 2013 и 2014 годы через торрент бесплатно. Скачивайте фильмы в хорошем качестве, игры для пк, xbox, playstation без регистрации. У нас вы найдете новые Зарубежные сериалы и Русские сериалы 2013, 2014, 2015 годов. Оставайтесь с нами, качайте любимые фильмы, игры, сериалы, книги и музыку.