img image001 image001 image001 image001 image001 image001 image001 image001 image001 image001 image001 image001 image001 image001 image001

Planets Sun Sun Sun
Статистика раздачи
Автор: PriZraK | Размер: 744.53 МБ | Добавлен: 15 фев 2014
Раздают: 12    Качают: 4
Скачать торрент
Скачать торрент
Описание торрента

СообщениеДобавлено: 15 фев 2014 


#77
Страна: CCCP
Производство: Мосфильм

Жанр: военный
Год выпуска: 1982
Продолжительность: 01:25:11

Перевод: не требуется
Оригинальная аудиодорожка: русский
Cубтитры: нет

Режиссер: Александр Сурин

В ролях:
Андрей Ташков, Марина Яковлева, Владимир Симонов, Юрий Веялис, Леонид Ярмольник, Юрий Гребенщиков, Вячеслав Молоков, Михаил Шулейкин (Михаил Крылов), Любовь Соколова...


1942 год. Под Ржевом идут жесточайшие бои. Среди солдат, ведущих неравные бои с врагом, новобранец Сашка. Простому деревенскому парню не сразу дается «наука побеждать» и умение в любых ситуациях находить общий язык с однополчанами и любимой девушкой…





Исходник: DVD5 R5
Тип релиза: DVDRip
Контейнер: AVI

Видео: 640x496 (1,290:1), 25 fps, XviD ~ 1084 kbps avg, 0.137 bit/pixel
Аудио: 48 kHz, MP3 2.0, 128 kbps

Раздача от:
Общее
Полное имя : Sashka.1982.DVDRip-745_[New-team]_by_AVP_Studio.avi
Формат : AVI
Формат/Информация : Audio Video Interleave
Размер файла : 745 Мбайт
Продолжительность : 1 ч. 25 м.
Общий поток : 1222 Кбит/сек
Программа кодирования : VirtualDubModRus 1.5.10.2 (build 2542/release)
Библиотека кодирования : VirtualDubMod build 2542/release

Видео
Идентификатор : 0
Формат : MPEG-4 Visual
Профиль формата : Advanced Simple@L5
Параметр BVOP формата : 1
Параметр QPel формата : Нет
Параметр GMC формата : Без точки перехода
Параметр матрицы формата : Выборочная
Идентификатор кодека : XVID
Идентификатор кодека/Подсказка : XviD
Продолжительность : 1 ч. 25 м.
Битрейт : 1084 Кбит/сек
Ширина : 640 пикселей
Высота : 496 пикселей
Соотношение сторон : 1,290
Частота кадров : 25,000 кадров/сек
Цветовое пространство : YUV
Субдискретизация насыщенности : 4:2:0
Битовая глубина : 8 бит
Тип развёртки : Прогрессивная
Метод сжатия : С потерями
Бит/(Пиксели*Кадры) : 0.137
Размер потока : 661 Мбайт (89%)
Библиотека кодирования : XviD 73

Аудио
Идентификатор : 1
Формат : MPEG Audio
Версия формата : Version 1
Профиль формата : Layer 3
Идентификатор кодека : 55
Идентификатор кодека/Подсказка : MP3
Продолжительность : 1 ч. 25 м.
Вид битрейта : Постоянный
Битрейт : 128 Кбит/сек
Каналы : 2 канала
Частота : 48,0 КГц
Метод сжатия : С потерями
Размер потока : 78,0 Мбайт (10%)
Выравнивание : Соединение по промежуткам
Продолжительность промежутка : 40 мс. (1,00 видеокадр)
Время предзагрузки промежутка : 504 мс.
Библиотека кодирования : LAME3.99r
Настройки программы : -m s -V 4 -q 2 -lowpass 17 -b 128





   Похожие торренты   Торрент   Размер 
В этой теме нет новых непрочитанных сообщений. Сашка (1982) DVDRip-AVC от New-Team

8 | 4

1.46 ГБ

В этой теме нет новых непрочитанных сообщений. Сашка (1982) DVDRip от New-Team

8 | 6

1.46 ГБ

В этой теме нет новых непрочитанных сообщений. Сашка (1982) DVDRip от Киномагия

14 | 3

1.36 ГБ

В этой теме нет новых непрочитанных сообщений. Чародеи (1982) DVDRip от New-Team

77 | 7

2.19 ГБ

В этой теме нет новых непрочитанных сообщений. Чародеи (1982) DVDRip от New-Team

108 | 9

1.46 ГБ

В этой теме нет новых непрочитанных сообщений. Чародеи (1982) DVDRip-AVC от New-Team

86 | 11

2.19 ГБ

В этой теме нет новых непрочитанных сообщений. Взять живым (1982) DVDRip-AVC от New-Team

6 | 1

2.91 ГБ




Вы не можете начинать темы
Вы не можете отвечать на сообщения
Вы не можете редактировать свои сообщения
Вы не можете удалять свои сообщения
Вы не можете добавлять вложения

Перейти:  
Для Мосгорсуда, Роскомнадзора и рекламодателей: mosgorsud-torrent[собачка]yandex.ru
 Вход
ppkBB3cker v.2 © 2008-2014 @ PPK
[ Time : 0.028s | 15 Queries | GZIP : Off ]

cron