img image001 image001 image001 image001 image001 image001 image001 image001 image001 image001 image001 image001 image001 image001 image001

Planets Sun Sun Sun
Статистика раздачи
Автор: PriZraK | Размер: 743.62 МБ | Добавлен: 15 фев 2014
Раздают: 26    Качают: 14
Скачать торрент
Скачать торрент
Описание торрента

СообщениеДобавлено: 15 фев 2014 


#77
Страна: CCCP
Производство: Мосфильм

Жанр: боевик, драма
Год выпуска: 1982
Продолжительность: 01:09:27

Перевод: не требуется
Оригинальная аудиодорожка: русский
Cубтитры: нет

Режиссер: Михаил Туманишвили

В ролях:
Борис Щербаков, Михай (Михаил) Волонтир, Анатолий Кузнецов, Владимир Седов, Омар Волмер, Паул Буткевич, Витаутас Томкус, Ивар Калныньш, Борис (Боб) Цымба, Ромуальдас Анцанс, Игорь Комаров, Валерий Малышев, Александр Пашутин, Борис Токарев, Евгения Уралова, Михаил Чигарев, Сергей Балабанов, Нина Малахова...


В Северной Атлантике, неподалеку от района, где проводят учения советские корабли Военно-Морского Флота, терпит аварию подводная лодка с вышедшим из строя атомным реактором.
Патрульная служба ВМС США пытается сбить советский самолет-спасатель, а тем временем с неуправляемой лодки в сторону советских кораблей уже направляются две крылатые ракеты. Советские моряки, уничтожив смертоносное оружие, топят подводную лодку противника — и ликвидируют возникновение глобального конфликта.





Исходник: DVD5 R5
Тип релиза: DVDRip
Контейнер: AVI

Видео: 688x528 (4:3), 25 fps, XviD ~ 1359 kbps avg, 0.150 bit/pixel
Аудио: 48 kHz, MP3 2.0, 128 kbps

Раздача от:
Общее
Полное имя : Sluchay.v.kvadrate.36-80.1982.DVDRip_[New-team]_by_AVP_Studio.avi
Формат : AVI
Формат/Информация : Audio Video Interleave
Размер файла : 744 Мбайт
Продолжительность : 1 ч. 9 м.
Общий поток : 1497 Кбит/сек
Программа кодирования : VirtualDubModRus 1.5.10.2 (build 2542/release)
Библиотека кодирования : VirtualDubMod build 2542/release

Видео
Идентификатор : 0
Формат : MPEG-4 Visual
Профиль формата : Advanced Simple@L5
Параметр BVOP формата : 1
Параметр QPel формата : Нет
Параметр GMC формата : Без точки перехода
Параметр матрицы формата : Выборочная
Идентификатор кодека : XVID
Идентификатор кодека/Подсказка : XviD
Продолжительность : 1 ч. 9 м.
Битрейт : 1359 Кбит/сек
Ширина : 688 пикселей
Высота : 528 пикселей
Соотношение сторон : 4:3
Частота кадров : 25,000 кадров/сек
Цветовое пространство : YUV
Субдискретизация насыщенности : 4:2:0
Битовая глубина : 8 бит
Тип развёртки : Прогрессивная
Метод сжатия : С потерями
Бит/(Пиксели*Кадры) : 0.150
Размер потока : 675 Мбайт (91%)
Библиотека кодирования : XviD 73

Аудио
Идентификатор : 1
Формат : MPEG Audio
Версия формата : Version 1
Профиль формата : Layer 3
Идентификатор кодека : 55
Идентификатор кодека/Подсказка : MP3
Продолжительность : 1 ч. 9 м.
Вид битрейта : Постоянный
Битрейт : 128 Кбит/сек
Каналы : 2 канала
Частота : 48,0 КГц
Метод сжатия : С потерями
Размер потока : 63,6 Мбайт (9%)
Выравнивание : Соединение по промежуткам
Продолжительность промежутка : 40 мс. (1,00 видеокадр)
Время предзагрузки промежутка : 504 мс.
Библиотека кодирования : LAME3.99r
Настройки программы : -m s -V 4 -q 2 -lowpass 17 -b 128





   Похожие торренты   Торрент   Размер 
В этой теме нет новых непрочитанных сообщений. Случай в квадрате 36-80 (1982) DVDRip-AVC от New-Team

87 | 18

744.69 МБ

В этой теме нет новых непрочитанных сообщений. Случай в квадрате 36-80 (1982) DVDRip-AVC от ExKinoRay

197 | 15

1.06 ГБ

В этой теме нет новых непрочитанных сообщений. Случай в квадрате 36-80 (1982) DVDRip от Alekxandr48

4 | 4

700.37 МБ

В этой теме нет новых непрочитанных сообщений. Случай в квадрате 36-80 (1982) DVD5

14 | 2

3.91 ГБ

В этой теме нет новых непрочитанных сообщений. Случай в квадрате 36-80 (1982) HDTVRip 1080i

24 | 4

2.58 ГБ

В этой теме нет новых непрочитанных сообщений. В квадрате 45 (1955) SATRip от New-Team

28 | 5

744.27 МБ

В этой теме нет новых непрочитанных сообщений. В квадрате 45 (1955) SATRip-AVC от New-Team

26 | 4

744.35 МБ




Вы не можете начинать темы
Вы не можете отвечать на сообщения
Вы не можете редактировать свои сообщения
Вы не можете удалять свои сообщения
Вы не можете добавлять вложения

Перейти:  
Для Мосгорсуда, Роскомнадзора и рекламодателей: mosgorsud-torrent[собачка]yandex.ru
 Вход
ppkBB3cker v.2 © 2008-2014 @ PPK
[ Time : 0.046s | 15 Queries | GZIP : On ]

Торрент трекер RUTOR.IN, Не можете зайти на rutor.org? Какой новый адрес рутор? Какое зеркало рутор? Не работает rutor.org и зеркала? Тогда наш торрент специально для вас. Rutor.in неофициальное зеркало rutor. В случае если у Вас заблокирован rutor или вдруг Вы не можете на него зайти, то Вы без труда сможете скачать бесплатно и без рекламы последние новинки кино, игр, сериалов и прочего у нас, на Rutor.in. Не нужно использовать прокси, чтобы зайти на рутор, достаточно воспользоваться нашим ресурсом. Все новые фильмы, игры, сериалы, книги и музыка за 2013 и 2014 годы через торрент бесплатно. Скачивайте фильмы в хорошем качестве, игры для пк, xbox, playstation без регистрации. У нас вы найдете новые Зарубежные сериалы и Русские сериалы 2013, 2014, 2015 годов. Оставайтесь с нами, качайте любимые фильмы, игры, сериалы, книги и музыку.