img image001 image001 image001 image001 image001 image001 image001 image001 image001 image001 image001 image001 image001 image001 image001

Planets Sun Sun Sun
Статистика раздачи
Автор: PriZraK | Размер: 744.69 МБ | Добавлен: 15 фев 2014
Раздают: 87    Качают: 18
Скачать торрент
Скачать торрент
Описание торрента

СообщениеДобавлено: 15 фев 2014 


#77
Страна: CCCP
Производство: Мосфильм

Жанр: боевик, драма
Год выпуска: 1982
Продолжительность: 01:09:27

Перевод: не требуется
Оригинальная аудиодорожка: русский
Cубтитры: нет

Режиссер: Михаил Туманишвили

В ролях:
Борис Щербаков, Михай (Михаил) Волонтир, Анатолий Кузнецов, Владимир Седов, Омар Волмер, Паул Буткевич, Витаутас Томкус, Ивар Калныньш, Борис (Боб) Цымба, Ромуальдас Анцанс, Игорь Комаров, Валерий Малышев, Александр Пашутин, Борис Токарев, Евгения Уралова, Михаил Чигарев, Сергей Балабанов, Нина Малахова...


В Северной Атлантике, неподалеку от района, где проводят учения советские корабли Военно-Морского Флота, терпит аварию подводная лодка с вышедшим из строя атомным реактором.
Патрульная служба ВМС США пытается сбить советский самолет-спасатель, а тем временем с неуправляемой лодки в сторону советских кораблей уже направляются две крылатые ракеты. Советские моряки, уничтожив смертоносное оружие, топят подводную лодку противника — и ликвидируют возникновение глобального конфликта.





Исходник: DVD5 R5
Тип релиза: DVDRip-AVC
Контейнер: MKV

Видео: 696->742x572 (1,297:1), 25 fps, H264 ~ 1305 kbps avg, 0.131 bit/pixel
Аудио: 48 kHz, Dolby Digital AC3 2.0, 192 kbps

Раздача от:
Общее
Полное имя : Sluchay.v.kvadrate.36-80.1982.DVDRip-AVC_[New-team]_by_AVP_Studio.mkv
Формат : Matroska
Версия формата : Version 2
Размер файла : 745 Мбайт
Продолжительность : 1 ч. 9 м.
Общий поток : 1499 Кбит/сек
Дата кодирования : UTC 2014-01-09 20:00:37
Программа кодирования : mkvmerge v6.1.0 ('Old Devil') built on Mar 4 2013 09:10:42
Библиотека кодирования : libebml v1.3.0 + libmatroska v1.4.0

Видео
Идентификатор : 1
Формат : AVC
Формат/Информация : Advanced Video Codec
Профиль формата : High@L4.1
Параметр CABAC формата : Да
Параметр ReFrames формата : 8 кадров
Идентификатор кодека : V_MPEG4/ISO/AVC
Продолжительность : 1 ч. 9 м.
Битрейт : 1305 Кбит/сек
Ширина : 696 пикселей
Высота : 572 пикселя
Соотношение сторон : 1,297
Соотношение сторон в оригинале : 1,298
Частота кадров : 25,000 кадров/сек
Цветовое пространство : YUV
Субдискретизация насыщенности : 4:2:0
Битовая глубина : 8 бит
Тип развёртки : Прогрессивная
Бит/(Пиксели*Кадры) : 0.131
Размер потока : 634 Мбайт (85%)
Библиотека кодирования : x264 core 138 r2356 a1d3d17
Настройки программы : cabac=1 / ref=8 / deblock=1:-2:-1 / analyse=0x3:0x113 / me=umh / subme=10 / psy=1 / psy_rd=1.00:0.05 / mixed_ref=1 / me_range=32 / chroma_me=1 / trellis=2 / 8x8dct=1 / cqm=0 / deadzone=21,11 / fast_pskip=0 / chroma_qp_offset=-3 / threads=3 / lookahead_threads=1 / sliced_threads=0 / nr=0 / decimate=0 / interlaced=0 / bluray_compat=0 / constrained_intra=0 / bframes=8 / b_pyramid=2 / b_adapt=2 / b_bias=0 / direct=3 / weightb=1 / open_gop=0 / weightp=2 / keyint=250 / keyint_min=25 / scenecut=40 / intra_refresh=0 / rc=2pass / mbtree=0 / bitrate=1305 / ratetol=1.0 / qcomp=0.60 / qpmin=0 / qpmax=69 / qpstep=4 / cplxblur=20.0 / qblur=0.5 / ip_ratio=1.40 / pb_ratio=1.30 / aq=1:1.00
Default : Да
Forced : Нет

Аудио
Идентификатор : 2
Формат : AC-3
Формат/Информация : Audio Coding 3
Расширение режима : CM (complete main)
Идентификатор кодека : A_AC3
Продолжительность : 1 ч. 9 м.
Вид битрейта : Постоянный
Битрейт : 192 Кбит/сек
Каналы : 2 канала
Расположение каналов : Front: L R
Частота : 48,0 КГц
Битовая глубина : 16 бит
Метод сжатия : С потерями
Размер потока : 95,4 Мбайт (13%)
Default : Да
Forced : Нет





   Похожие торренты   Торрент   Размер 
В этой теме нет новых непрочитанных сообщений. Случай в квадрате 36-80 (1982) DVDRip от New-Team

26 | 14

743.62 МБ

В этой теме нет новых непрочитанных сообщений. Случай в квадрате 36-80 (1982) DVDRip-AVC от ExKinoRay

197 | 15

1.06 ГБ

В этой теме нет новых непрочитанных сообщений. Случай в квадрате 36-80 (1982) DVDRip от Alekxandr48

4 | 4

700.37 МБ

В этой теме нет новых непрочитанных сообщений. Случай в квадрате 36-80 (1982) DVD5

14 | 2

3.91 ГБ

В этой теме нет новых непрочитанных сообщений. Случай в квадрате 36-80 (1982) HDTVRip 1080i

24 | 4

2.58 ГБ

В этой теме нет новых непрочитанных сообщений. В квадрате 45 (1955) SATRip от New-Team

25 | 4

744.27 МБ

В этой теме нет новых непрочитанных сообщений. В квадрате 45 (1955) SATRip-AVC от New-Team

21 | 4

744.35 МБ




Вы не можете начинать темы
Вы не можете отвечать на сообщения
Вы не можете редактировать свои сообщения
Вы не можете удалять свои сообщения
Вы не можете добавлять вложения

Перейти:  
Для Мосгорсуда, Роскомнадзора и рекламодателей: mosgorsud-torrent[собачка]yandex.ru
 Вход
ppkBB3cker v.2 © 2008-2014 @ PPK
[ Time : 2.172s | 16 Queries | GZIP : On ]

Торрент трекер RUTOR.IN, Не можете зайти на rutor.org? Какой новый адрес рутор? Какое зеркало рутор? Не работает rutor.org и зеркала? Тогда наш торрент специально для вас. Rutor.in неофициальное зеркало rutor. В случае если у Вас заблокирован rutor или вдруг Вы не можете на него зайти, то Вы без труда сможете скачать бесплатно и без рекламы последние новинки кино, игр, сериалов и прочего у нас, на Rutor.in. Не нужно использовать прокси, чтобы зайти на рутор, достаточно воспользоваться нашим ресурсом. Все новые фильмы, игры, сериалы, книги и музыка за 2013 и 2014 годы через торрент бесплатно. Скачивайте фильмы в хорошем качестве, игры для пк, xbox, playstation без регистрации. У нас вы найдете новые Зарубежные сериалы и Русские сериалы 2013, 2014, 2015 годов. Оставайтесь с нами, качайте любимые фильмы, игры, сериалы, книги и музыку.