img image001 image001 image001 image001 image001 image001 image001 image001 image001 image001 image001 image001 image001 image001 image001 image001

Planets Sun Sun Sun
Статистика раздачи
Автор: PriZraK | Размер: 1.36 ГБ | Добавлен: 15 фев 2014
Раздают: 0    Качают: 13
Скачать торрент
Скачать торрент
Описание торрента

СообщениеДобавлено: 15 фев 2014 




Информация о фильме
Оригинальное название: Петля Нестерова
Год выхода: 2007
Жанр: Драма
Режиссер: Иван Сауткин
В ролях: Юрий Цурило, Ольга Торощина, Сергей Малюга, Юлия Гершаник

О фильме:
В основе сюжета фильма — жизнь директора завода Владимира Петровича Нестерова, где есть место только для работы. С женой и дочерью он встречается в лучшем случае за завтраком. Общих тем для разговоров давно нет. И вот, в один миг размеренная и устоявшаяся жизнь Нестерова нарушена телефонным звонком от незнакомца, назвавшего себя его сыном. Встреча с обретенным сыном Сергеем расставила новые приоритеты в жизни главного героя.


Страна: Украина
Студия: Film.UA
Продолжительность: 01:26:25
Язык: Русский

Файл
Кодек: XviD
Качество: DVDRip
Видео: 1990 Кбит/с, 720x400, 25.000 кадр/с
Звук: (АС3, 2 ch, 256 Кбит/с)

Семпл


Общее
Полное имя : Petlja Nesterova.2007.DVDRip.MediaClub.avi
Формат : AVI
Формат/Информация : Audio Video Interleave
Размер файла : 1,36 Гбайт
Продолжительность : 1 ч. 26 м.
Общий поток : 2256 Кбит/сек
Название фильма : MediaClub
Программа кодирования : VirtualDubMod 1.5.10.2 (build 2540/release)
Библиотека кодирования : VirtualDubMod build 2540/release

Видео
Идентификатор : 0
Формат : MPEG-4 Visual
Профиль формата : Advanced Simple@L5
Параметр BVOP формата : 2
Параметр QPel формата : Нет
Параметр GMC формата : Без точки перехода
Параметр матрицы формата : Default (MPEG)
Идентификатор кодека : XVID
Идентификатор кодека/Подсказка : XviD
Продолжительность : 1 ч. 26 м.
Битрейт : 1990 Кбит/сек
Ширина : 720 пикселей
Высота : 400 пикселей
Соотношение сторон : 16:9
Частота кадров : 25,000 кадров/сек
Цветовое пространство : YUV
Субдискретизация насыщенности : 4:2:0
Битовая глубина : 8 бит
Тип развёртки : Прогрессивная
Метод сжатия : С потерями
Бит/(Пиксели*Кадры) : 0.276
Размер потока : 1,20 Гбайт (88%)
Библиотека кодирования : XviD 65

Аудио
Идентификатор : 1
Формат : AC-3
Формат/Информация : Audio Coding 3
Расширение режима : CM (complete main)
Параметр Endianness формата : Big
Идентификатор кодека : 2000
Продолжительность : 1 ч. 26 м.
Вид битрейта : Постоянный
Битрейт : 256 Кбит/сек
Каналы : 2 канала
Расположение каналов : Front: L R
Частота : 48,0 КГц
Битовая глубина : 16 бит
Метод сжатия : С потерями
Размер потока : 158 Мбайт (11%)
Выравнивание : Разделение по промежуткам
Продолжительность промежутка : 40 мс. (1,00 видеокадр)
Время предзагрузки промежутка : 500 мс.


Релиз от:



   Похожие торренты   Торрент   Размер 
В этой теме нет новых непрочитанных сообщений. Петля Нестерова (2007) DVDRip от Кинорадиомагия

87 | 10

1.37 ГБ

В этой теме нет новых непрочитанных сообщений. Петля Нестерова [01 из 08] (2015) WEB-DL 720p от MediaClub

1741 | 113

611.02 МБ

В этой теме нет новых непрочитанных сообщений. Петля Нестерова [01-08 из 08] (2015) WEB-DLRip | КПК

511 | 115

1.81 ГБ

В этой теме нет новых непрочитанных сообщений. Петля Нестерова [01 из 08] (2015) WEB-DLRip | КПК

107 | 7

246.15 МБ

В этой теме нет новых непрочитанных сообщений. Петля Нестерова [01-08 из 08] (2015) WEB-DLRip-AVC от ExKinoRay

В этой теме нет новых непрочитанных сообщений. Петля Нестерова [01-02 из 08] (2015) HDTVRip-AVC от Files-x

42 | 38

4.7 ГБ

В этой теме нет новых непрочитанных сообщений. Петля Нестерова [01-04 из 08] (2015) WEB-DLRip от GeneralFilm

18 | 3

2.17 ГБ




Вы не можете начинать темы
Вы не можете отвечать на сообщения
Вы не можете редактировать свои сообщения
Вы не можете удалять свои сообщения
Вы не можете добавлять вложения

Перейти:  
 Вход
ppkBB3cker v.2 © 2008-2014 @ PPK
[ Time : 0.026s | 15 Queries | GZIP : Off ]

cron