img image001 image001 image001 image001 image001 image001 image001 image001 image001 image001 image001 image001 image001 image001 image001

Planets Sun Sun Sun
Статистика раздачи
Автор: PriZraK | Размер: 1.46 ГБ | Добавлен: 15 фев 2014
Раздают: 31    Качают: 21
Скачать торрент
Скачать торрент
Описание торрента

СообщениеДобавлено: 15 фев 2014 


#77
Страна: CCCP
Производство: Мосфильм

Жанр: комедия, приключения
Год выпуска: 1982
Продолжительность: 01:28:35

Перевод: не требуется
Оригинальная аудиодорожка: русский
Cубтитры: нет

Режиссер: Леонид Гайдай

В ролях:
Альгис Арлаускас, Светлана Аманова, Михаил Пуговкин, Михаил Кокшенов, Денис Кмит, Нина Гребешкова, Андрей Толшин, Борислав Брондуков, Луиза Мосендз, Сергей Филиппов, Абессалом Лория, Виктор Уральский, Юрий Попович, Вера Ивлева, Татьяна Игнатова, Темурмалик Юнусов, Владимир Мышкин...


На один из билетов «Спортлото» выпадает крупный выигрыш. Однако билет оказывается потерянным. В поисках его герои попадают во множество занятных переделок, над которыми зритель веселится от души…





Исходник: DVВ
Тип релиза: SATRip
Контейнер: AVI

Видео: 688x384 (16:9), 25 fps, XviD ~ 2151 kbps avg, 0.326 bit/pixel
Аудио: 48 kHz, Dolby AC3 2.0, 192 kbps

Раздача от:
Общее
Полное имя : Sportloto-82.1982.SATRip_[New-team]_by_AVP_Studio.avi
Формат : AVI
Формат/Информация : Audio Video Interleave
Размер файла : 1,46 Гбайт
Продолжительность : 1 ч. 28 м.
Общий поток : 2353 Кбит/сек
Программа кодирования : VirtualDubModRus 1.5.10.2 (build 2542/release)
Библиотека кодирования : VirtualDubMod build 2542/release

Видео
Идентификатор : 0
Формат : MPEG-4 Visual
Профиль формата : Advanced Simple@L5
Параметр BVOP формата : 1
Параметр QPel формата : Нет
Параметр GMC формата : Без точки перехода
Параметр матрицы формата : Выборочная
Идентификатор кодека : XVID
Идентификатор кодека/Подсказка : XviD
Продолжительность : 1 ч. 28 м.
Битрейт : 2151 Кбит/сек
Ширина : 688 пикселей
Высота : 384 пикселя
Соотношение сторон : 16:9
Частота кадров : 25,000 кадров/сек
Цветовое пространство : YUV
Субдискретизация насыщенности : 4:2:0
Битовая глубина : 8 бит
Тип развёртки : Прогрессивная
Метод сжатия : С потерями
Бит/(Пиксели*Кадры) : 0.326
Размер потока : 1,33 Гбайт (91%)
Библиотека кодирования : XviD 73

Аудио
Идентификатор : 1
Формат : MPEG Audio
Версия формата : Version 1
Профиль формата : Layer 2
Идентификатор кодека : 50
Продолжительность : 1 ч. 28 м.
Вид битрейта : Постоянный
Битрейт : 192 Кбит/сек
Каналы : 2 канала
Частота : 48,0 КГц
Метод сжатия : С потерями
Размер потока : 122 Мбайт (8%)
Выравнивание : Соединение по промежуткам
Продолжительность промежутка : 40 мс. (1,00 видеокадр)
Время предзагрузки промежутка : 504 мс



Исполнительница главной роли Светлана Аманова — брюнетка, поэтому на съёмках ей приходилось периодически обесцвечивать волосы перекисью водорода.
Среди кандидатов на роль Павла и Степана рассматривался и очень популярный в то время Михаил Боярский.
На роль директора турбазы изначально рассматривался Михаил Пуговкин, но в итоге эту роль отдали «мастеру эпизода» — Бориславу Брондукову, а Пуговкину досталась роль главного антагониста — «Сан Саныча».
По утверждению Луизы Мосендз, её встретила в коридоре ассистентка по актёрам, которая тут же отвела девушку к Гайдаю, а тот практически сразу утвердил её на роль Аллы Дмитриевны.
Место съёмок — Крым, железнодорожный вокзал и базар — Феодосия, стоянка «автокочевников» — Мыс Капчик. Турбаза «Орлиный приют» — горный массив Кара-Даг. Дом, в котором жили Сан Саныч и Костя Луков, находится в Феодосии по адресу ул. Прямая, 1.
Пляж, где купается и загорает Константин — городской пляж Алушты. На съёмках Сан Саныча и Степана в эпизодах с лодкой виден мыс Плака, также на заднем плане видна Медведь-Гора (Аю-Даг).
Большой прямоугольный камень, который обходит Сан Саныч и дерево, с которого Никулин бросался орехами («Орех Никулина») из другого к/ф Гайдая «Кавказская пленница, или Новые приключения Шурика» находятся на расстоянии нескольких метров друг от друга.
Имя писателя Гениана Зеленого, детективом которого увлечены герои фильма, является аллюзией на популярного в то время среди читателей Юлиана Семенова.
Сцену жаркого летнего дня, когда Таня (героиня Светланы Амановой) исполняет песню «Землю обходит любовь» снимался в условиях сильного холода. На фотографиях, сделанных в тот же день, Альгис в пальто и шапке. В кадре у Светланы всё время синели губы от холода



   Похожие торренты   Торрент   Размер 
В этой теме нет новых непрочитанных сообщений. Спортлото-82 (1982) SATRip от New-Team

45 | 21

744.31 МБ

В этой теме нет новых непрочитанных сообщений. Спортлото-82 (1982) SATRip-AVC от New-Team

291 | 39

1.46 ГБ

В этой теме нет новых непрочитанных сообщений. Спортлото-82 (1982) DVD5

237 | 12

4.26 ГБ

В этой теме нет новых непрочитанных сообщений. Спортлото - 82 (1982) DVDRip

536 | 39

1.37 ГБ

В этой теме нет новых непрочитанных сообщений. Спортлото-82 (1982) HDTV 1080i

576 | 96

7.16 ГБ

В этой теме нет новых непрочитанных сообщений. Спортлото-82 (1982) WEBRip от Serjoga76

75 | 20

1.01 ГБ

В этой теме нет новых непрочитанных сообщений. Спортлото-82 (1982) DVDRip от Alekxandr48

54 | 11

700.51 МБ




Вы не можете начинать темы
Вы не можете отвечать на сообщения
Вы не можете редактировать свои сообщения
Вы не можете удалять свои сообщения
Вы не можете добавлять вложения

Перейти:  
Для Мосгорсуда, Роскомнадзора и рекламодателей: mosgorsud-torrent[собачка]yandex.ru
 Вход
ppkBB3cker v.2 © 2008-2014 @ PPK
[ Time : 0.039s | 15 Queries | GZIP : Off ]

Торрент трекер RUTOR.IN, Не можете зайти на rutor.org? Какой новый адрес рутор? Какое зеркало рутор? Не работает rutor.org и зеркала? Тогда наш торрент специально для вас. Rutor.in неофициальное зеркало rutor. В случае если у Вас заблокирован rutor или вдруг Вы не можете на него зайти, то Вы без труда сможете скачать бесплатно и без рекламы последние новинки кино, игр, сериалов и прочего у нас, на Rutor.in. Не нужно использовать прокси, чтобы зайти на рутор, достаточно воспользоваться нашим ресурсом. Все новые фильмы, игры, сериалы, книги и музыка за 2013 и 2014 годы через торрент бесплатно. Скачивайте фильмы в хорошем качестве, игры для пк, xbox, playstation без регистрации. У нас вы найдете новые Зарубежные сериалы и Русские сериалы 2013, 2014, 2015 годов. Оставайтесь с нами, качайте любимые фильмы, игры, сериалы, книги и музыку.