img image001 image001 image001 image001 image001 image001 image001 image001 image001 image001 image001 image001 image001 image001 image001

Planets Sun Sun Sun
Статистика раздачи
Автор: PriZraK | Размер: 2.91 ГБ | Добавлен: 15 фев 2014
Раздают: 20    Качают: 4
Скачать торрент
Скачать торрент
Описание торрента

СообщениеДобавлено: 15 фев 2014 


#77
Страна: СССР
Производство: Гостелерадио, Ленфильм

Жанр: приключения, семейный
Год выпуска: 1982
Продолжительность: 03:03:56 (00:57:01 01:05:43 01:01:12)

Перевод: не требуется
Оригинальная аудиодорожка: русский
Cубтитры: нет

Режиссер: Владимир Воробьёв

В ролях:
Федя Стуков, Олег Борисов, Виктор Костецкий, Владислав Стржельчик, Константин Григорьев, Леонид Марков, Георгий Тейх, Ольга Волкова, Валерий Золотухин, Николай Караченцов, Геннадий Юхтин, Георгий Штиль, Гелий Сысоев, Анатолий Сливников, Андрей Алексеев, Владимир Воробьёв, Николай Крюков, Олег Василюк, Игорь Ефимов, Валерий Козинец, Иосиф Кринский, Николай Кузьмин, Владимир Севостьянихин, Станислав Соколов, Филипп Школьник, Константин Воробьёв, Елена Дриацкая, Виталий Соломин (текст от автора)

Описание:
Корабли пиратов, увлекательные странствия, поиски несметных сокровищ… На три часа вы сможете с головой погрузиться в волшебный мир приключений, полных опасностей и романтики…





Исходник: DVD9 R5 + DVD5 R5
Тип релиза: DVDRip
Контейнер: AVI

Видео: 720x544 (4:3), 25 fps, XviD ~ 1807 kbps avg, 0.184 bit/pixel
Аудио: 48 kHz, Dolby AC3 5.1, 448 kbps

Раздача от:
Общее
Полное имя : Ostrov.sokrovishh.1982.DVDRip_[New-team]_by_AVP_Studio\01.avi
Формат : AVI
Формат/Информация : Audio Video Interleave
Размер файла : 923 Мбайт
Продолжительность : 57 м.
Общий поток : 2264 Кбит/сек
Программа кодирования : VirtualDubModRus 1.5.10.2 (build 2542/release)
Библиотека кодирования : VirtualDubMod build 2542/release

Видео
Идентификатор : 0
Формат : MPEG-4 Visual
Профиль формата : Advanced Simple@L5
Параметр BVOP формата : 1
Параметр QPel формата : Нет
Параметр GMC формата : Без точки перехода
Параметр матрицы формата : Выборочная
Идентификатор кодека : XVID
Идентификатор кодека/Подсказка : XviD
Продолжительность : 57 м.
Битрейт : 1807 Кбит/сек
Ширина : 720 пикселей
Высота : 544 пикселя
Соотношение сторон : 4:3
Частота кадров : 25,000 кадров/сек
Цветовое пространство : YUV
Субдискретизация насыщенности : 4:2:0
Битовая глубина : 8 бит
Тип развёртки : Прогрессивная
Метод сжатия : С потерями
Бит/(Пиксели*Кадры) : 0.184
Размер потока : 737 Мбайт (80%)
Библиотека кодирования : XviD 73

Аудио
Идентификатор : 1
Формат : AC-3
Формат/Информация : Audio Coding 3
Расширение режима : CM (complete main)
Параметр Endianness формата : Big
Идентификатор кодека : 2000
Продолжительность : 56 м.
Вид битрейта : Постоянный
Битрейт : 448 Кбит/сек
Каналы : 6 каналов
Расположение каналов : Front: L C R, Side: L R, LFE
Частота : 48,0 КГц
Битовая глубина : 16 бит
Метод сжатия : С потерями
Размер потока : 182 Мбайт (20%)
Выравнивание : Разделение по промежуткам
Продолжительность промежутка : 40 мс. (1,00 видеокадр)
Время предзагрузки промежутка : 500 мс





   Похожие торренты   Торрент   Размер 
В этой теме нет новых непрочитанных сообщений. Остров сокровищ (1982) DVDRip-AVC от New-Team

349 | 45

2.91 ГБ

В этой теме нет новых непрочитанных сообщений. Остров сокровищ (1982) DVDRip от New-Team

35 | 6

1.46 ГБ

В этой теме нет новых непрочитанных сообщений. Остров сокровищ [01-03 из 03] (1982) DVDRip

5 | 2

2.05 ГБ

В этой теме нет новых непрочитанных сообщений. Остров сокровищ (1982) DVDRip

36 | 9

1.39 ГБ

В этой теме нет новых непрочитанных сообщений. Остров сокровищ (1982) DVDRip by гаврила

174 | 55

2.95 ГБ

В этой теме нет новых непрочитанных сообщений. Остров сокровищ (1937) DVDRip-AVC от New-Team

40 | 25

1.46 ГБ

В этой теме нет новых непрочитанных сообщений. Остров сокровищ (1937) DVDRip от New-Team

39 | 25

745.06 МБ




Вы не можете начинать темы
Вы не можете отвечать на сообщения
Вы не можете редактировать свои сообщения
Вы не можете удалять свои сообщения
Вы не можете добавлять вложения

Перейти:  
Для Мосгорсуда, Роскомнадзора и рекламодателей: mosgorsud-torrent[собачка]yandex.ru
 Вход
ppkBB3cker v.2 © 2008-2014 @ PPK
[ Time : 0.052s | 14 Queries | GZIP : Off ]

Торрент трекер RUTOR.IN, Не можете зайти на rutor.org? Какой новый адрес рутор? Какое зеркало рутор? Не работает rutor.org и зеркала? Тогда наш торрент специально для вас. Rutor.in неофициальное зеркало rutor. В случае если у Вас заблокирован rutor или вдруг Вы не можете на него зайти, то Вы без труда сможете скачать бесплатно и без рекламы последние новинки кино, игр, сериалов и прочего у нас, на Rutor.in. Не нужно использовать прокси, чтобы зайти на рутор, достаточно воспользоваться нашим ресурсом. Все новые фильмы, игры, сериалы, книги и музыка за 2013 и 2014 годы через торрент бесплатно. Скачивайте фильмы в хорошем качестве, игры для пк, xbox, playstation без регистрации. У нас вы найдете новые Зарубежные сериалы и Русские сериалы 2013, 2014, 2015 годов. Оставайтесь с нами, качайте любимые фильмы, игры, сериалы, книги и музыку.