img image001 image001 image001 image001 image001 image001 image001 image001 image001 image001 image001 image001 image001 image001 image001

Planets Sun Sun Sun
Статистика раздачи
Автор: PriZraK | Размер: 1.67 ГБ | Добавлен: 15 фев 2014
Раздают: 185    Качают: 19
Скачать торрент
Скачать торрент
Описание торрента

СообщениеДобавлено: 15 фев 2014 




Информация о фильме
Название: Непобедимый
Год выхода: 2008
Жанр: Боевик
Режиссер: Олег Погодин
В ролях: Владимир Епифанцев, Сергей Астахов, Ольга Фадеева, Юрий Соломин, Олег Вавилов, Владимир Стеклов, Сергей Векслер, Тагир Рахимов, Владимир Турчинский, Кит Маллет, Дмитрий Добужинский, Александр Хованский (II), Игорь Якимов, Александр Дрожжин, Александр Лырчиков, Денис Мошкин, Александр Черных (II), Олег Гостик, Дмитрий Савостин, Роман Климов, Яков Ефимов

О фильме:
Российский спецагент Егор Кремнёв получает задание — конвоировать Михаила Шеринга, секретаря беглого олигарха Соркина c Мальты в Россию. В последней операции в Колумбии погибла вся команда Кремнёва и его разжаловали. Новое задание оказывается не таким простым, как в начале казалось: во время встречи с Шерингом погибают все коллеги Кремнёва. Он остаётся единственным кто может доставить Шеринга в Россию. Егор уже никому не доверяет, кругом предательства, заговоры, засады и ловушки. Даже новая помощница из Центра Надежда вызывает у него сомнения. Но самая главная ловушка Кремнёва это объект доставки — Шеринг. Егор так и не сможет избавиться от влияния своего попутчика, да к тому же Шеринг сможет временно переманить на свою сторону Надежду. Это смертельно опасное путешествие изменит обоих: и побеждённого Шеринга, и непобедимого Кремнёва.



Страна: Россия
Студия: Park Cinema Production
Продолжительность: 01:46:40
Перевод: Не требуется

Файл
Кодек: h.264
Качество: BDRip-AVC
Видео: 1854 Кбит/c, 1024x438, 23.976 кадр/с

Звук: AC3, 6 ch, 384 Кбит/с

Субтитры: Русские, английские

-------------------------------------------------------------------------------
x264 [info]: frame I:1377 Avg QP:16.41 size: 63367
x264 [info]: frame P:35719 Avg QP:19.46 size: 20312
x264 [info]: frame B:116362 Avg QP:20.92 size: 5754
-------------------------------------------------------------------------------

Полное имя : Nepobedimij.2008.x264.BDRip-AVC.0ptimus.mkv
Формат : Matroska
Версия формата : Version 4 / Version 2
Размер файла : 1,67 Гбайт
Продолжительность : 1 ч. 46 м.
Общий поток : 2239 Кбит/сек
Название фильма : Непобедимый [2008] -=BDRip (AVC) by 0ptimus=-
Дата кодирования : UTC 2014-01-14 20:23:23
Программа кодирования : mkvmerge v6.6.0 ('The Edge Of The In Between') built on Dec 1 2013 17:55:00
Библиотека кодирования : libebml v1.3.0 + libmatroska v1.4.1

Видео
Идентификатор : 1
Формат : AVC
Формат/Информация : Advanced Video Codec
Профиль формата : High@L4.1
Параметр CABAC формата : Да
Параметр ReFrames формата : 8 кадров
Идентификатор кодека : V_MPEG4/ISO/AVC
Продолжительность : 1 ч. 46 м.
Битрейт : 1854 Кбит/сек
Ширина : 1024 пикселя
Высота : 438 пикселей
Соотношение сторон : 2,35:1
Режим частоты кадров : Постоянный
Частота кадров : 23,976 кадра/сек
Цветовое пространство : YUV
Субдискретизация насыщенности : 4:2:0
Битовая глубина : 8 бит
Тип развёртки : Прогрессивная
Бит/(Пиксели*Кадры) : 0.172
Размер потока : 1,35 Гбайт (81%)
Заголовок : Rip by 0ptimus
Библиотека кодирования : x264 core 133 r2334 a3ac64b
Настройки программы : cabac=1 / ref=8 / deblock=1:-3:-3 / analyse=0x3:0x113 / me=umh / subme=10 / psy=1 / psy_rd=1.00:0.20 / mixed_ref=1 / me_range=32 / chroma_me=1 / trellis=2 / 8x8dct=1 / cqm=0 / deadzone=21,11 / fast_pskip=0 / chroma_qp_offset=-3 / threads=3 / lookahead_threads=1 / sliced_threads=0 / nr=0 / decimate=0 / interlaced=0 / bluray_compat=0 / constrained_intra=0 / bframes=10 / b_pyramid=2 / b_adapt=2 / b_bias=0 / direct=3 / weightb=1 / open_gop=0 / weightp=2 / keyint=240 / keyint_min=23 / scenecut=40 / intra_refresh=0 / rc_lookahead=40 / rc=2pass / mbtree=0 / bitrate=1854 / ratetol=1.0 / qcomp=0.60 / qpmin=0 / qpmax=69 / qpstep=4 / cplxblur=20.0 / qblur=0.5 / vbv_maxrate=50000 / vbv_bufsize=50000 / nal_hrd=none / ip_ratio=1.40 / pb_ratio=1.30 / aq=1:1.00
Язык : Russian
Default : Да
Forced : Да

Аудио
Идентификатор : 2
Формат : AC-3
Формат/Информация : Audio Coding 3
Расширение режима : CM (complete main)
Параметр Endianness формата : Big
Идентификатор кодека : A_AC3
Продолжительность : 1 ч. 46 м.
Вид битрейта : Постоянный
Битрейт : 384 Кбит/сек
Каналы : 6 каналов
Расположение каналов : Front: L C R, Side: L R, LFE
Частота : 48,0 КГц
Битовая глубина : 16 бит
Метод сжатия : С потерями
Размер потока : 293 Мбайт (17%)
Заголовок : AC3 5.1 @ 384 kbps
Язык : Russian
Default : Да
Forced : Да

Текст #1
Идентификатор : 3
Формат : UTF-8
Идентификатор кодека : S_TEXT/UTF8
Идентификатор кодека/Информация : UTF-8 Plain Text
Язык : Russian
Default : Нет
Forced : Нет

Текст #2
Идентификатор : 4
Формат : UTF-8
Идентификатор кодека : S_TEXT/UTF8
Идентификатор кодека/Информация : UTF-8 Plain Text
Язык : English
Default : Нет
Forced : Нет

Меню
00:00:00.000 : en:Chapter 1
00:03:02.056 : en:Chapter 2
00:06:50.326 : en:Chapter 3
00:11:39.031 : en:Chapter 4
00:14:46.343 : en:Chapter 5
00:18:40.410 : en:Chapter 6
00:23:28.448 : en:Chapter 7
00:27:36.196 : en:Chapter 8
00:33:52.613 : en:Chapter 9
00:39:00.921 : en:Chapter 10
00:42:35.135 : en:Chapter 11
00:46:47.721 : en:Chapter 12
00:49:56.743 : en:Chapter 13
00:55:43.798 : en:Chapter 14
01:02:19.986 : en:Chapter 15
01:05:51.322 : en:Chapter 16
01:10:37.566 : en:Chapter 17
01:15:36.239 : en:Chapter 18
01:20:20.649 : en:Chapter 19
01:25:19.405 : en:Chapter 20
01:30:02.688 : en:Chapter 21
01:34:47.723 : en:Chapter 22
01:40:57.426 : en:Chapter 23
01:43:13.645 : en:Chapter 24
01:46:39.476 : en:Chapter 25




Релиз от:



   Похожие торренты   Торрент   Размер 
В этой теме нет новых непрочитанных сообщений. Непобедимый (2008) BDRip 1080p

103 | 9

4.38 ГБ

В этой теме нет новых непрочитанных сообщений. Непобедимый (2008) BDRip от Shevon

181 | 18

1.46 ГБ

В этой теме нет новых непрочитанных сообщений. Непобедимый (2008) BDRip 720p от -=CARBON=-

2 | 4

5.83 ГБ

В этой теме нет новых непрочитанных сообщений. Непобедимый (2008) DVDRip (BDRip) - Zona-X

1 | 23

2.18 ГБ

В этой теме нет новых непрочитанных сообщений. Непобедимый (2008) BDRip [PROPER] от HELLYWOOD

9 | 3

2.18 ГБ

В этой теме нет новых непрочитанных сообщений. Непобедимый (2008) DVB

13 | 2

2.89 ГБ

В этой теме нет новых непрочитанных сообщений. Непобедимый (2008) DVDRip

52 | 14

1.37 ГБ




Вы не можете начинать темы
Вы не можете отвечать на сообщения
Вы не можете редактировать свои сообщения
Вы не можете удалять свои сообщения
Вы не можете добавлять вложения

Перейти:  
Для Мосгорсуда, Роскомнадзора и рекламодателей: mosgorsud-torrent[собачка]yandex.ru
 Вход
ppkBB3cker v.2 © 2008-2014 @ PPK
[ Time : 0.036s | 14 Queries | GZIP : Off ]

Торрент трекер RUTOR.IN, Не можете зайти на rutor.org? Какой новый адрес рутор? Какое зеркало рутор? Не работает rutor.org и зеркала? Тогда наш торрент специально для вас. Rutor.in неофициальное зеркало rutor. В случае если у Вас заблокирован rutor или вдруг Вы не можете на него зайти, то Вы без труда сможете скачать бесплатно и без рекламы последние новинки кино, игр, сериалов и прочего у нас, на Rutor.in. Не нужно использовать прокси, чтобы зайти на рутор, достаточно воспользоваться нашим ресурсом. Все новые фильмы, игры, сериалы, книги и музыка за 2013 и 2014 годы через торрент бесплатно. Скачивайте фильмы в хорошем качестве, игры для пк, xbox, playstation без регистрации. У нас вы найдете новые Зарубежные сериалы и Русские сериалы 2013, 2014, 2015 годов. Оставайтесь с нами, качайте любимые фильмы, игры, сериалы, книги и музыку.