img image001 image001 image001 image001 image001 image001 image001 image001 image001 image001 image001 image001 image001 image001 image001

Planets Sun Sun Sun
Статистика раздачи
Автор: PriZraK | Размер: 1.46 ГБ | Добавлен: 15 фев 2014
Раздают: 319    Качают: 36
Скачать торрент
Скачать торрент
Описание торрента

СообщениеДобавлено: 15 фев 2014 


#77
Страна: CCCP
Производство: Мосфильм

Жанр: криминал, детектив
Год выпуска: 1983
Продолжительность: 01:31:50

Перевод: не требуется
Оригинальная аудиодорожка: русский
Cубтитры: нет

Режиссер: Вадим Дербенев

В ролях:
Ита Эвер, Владимир Зельдин, Владимир Седов, Юрий Мороз, Андрей Харитонрв, Всеволод Санаев, Любовь Полищук, Вероника Изотова, Ирина Мазуркевич, Борис Новиков, Тамара Носова...


Глава богатого семейства мистер Джорж Фортескью отравлен. Инспектор Нил ведет расследование и узнает, что покойный был малоприятным человеком. Его смерть была выгодна всем членам семейства. Дело не простое, для отравления был использован редчайший яд. Насильственная смерть служанки Глэдис, а позже хозяйки дома Адель, окончательно запутывает расследование. Но в дело вмешивается мисс Марпл…





Исходник: DVD5 R5
Тип релиза: DVDRip
Контейнер: AVI

Видео: 688x320 (2,2:1), 25 fps, XviD ~ 2068 kbps avg, 0.376 bit/pixel
Аудио: 48 kHz, Dolby AC3 2.0, 192 kbps

Раздача от:
Общее
Полное имя : Tayna.Chernyh.drozdov.1983.DVDRip_[New-team]_by_AVP_Studio.avi
Формат : AVI
Формат/Информация : Audio Video Interleave
Размер файла : 1,46 Гбайт
Продолжительность : 1 ч. 31 м.
Общий поток : 2270 Кбит/сек
Программа кодирования : VirtualDubModRus 1.5.10.2 (build 2542/release)
Библиотека кодирования : VirtualDubMod build 2542/release

Видео
Идентификатор : 0
Формат : MPEG-4 Visual
Профиль формата : Advanced Simple@L5
Параметр BVOP формата : 1
Параметр QPel формата : Нет
Параметр GMC формата : Без точки перехода
Параметр матрицы формата : Выборочная
Идентификатор кодека : XVID
Идентификатор кодека/Подсказка : XviD
Продолжительность : 1 ч. 31 м.
Битрейт : 2068 Кбит/сек
Ширина : 688 пикселей
Высота : 320 пикселей
Соотношение сторон : 2,2:1
Частота кадров : 25,000 кадров/сек
Цветовое пространство : YUV
Субдискретизация насыщенности : 4:2:0
Битовая глубина : 8 бит
Тип развёртки : Прогрессивная
Метод сжатия : С потерями
Бит/(Пиксели*Кадры) : 0.376
Размер потока : 1,33 Гбайт (91%)
Библиотека кодирования : XviD 73

Аудио
Идентификатор : 1
Формат : AC-3
Формат/Информация : Audio Coding 3
Расширение режима : CM (complete main)
Параметр Endianness формата : Big
Идентификатор кодека : 2000
Продолжительность : 1 ч. 31 м.
Вид битрейта : Постоянный
Битрейт : 192 Кбит/сек
Каналы : 2 канала
Расположение каналов : Front: L R
Частота : 48,0 КГц
Битовая глубина : 16 бит
Метод сжатия : С потерями
Размер потока : 126 Мбайт (8%)
Выравнивание : Разделение по промежуткам
Продолжительность промежутка : 40 мс. (1,00 видеокадр)
Время предзагрузки промежутка : 500 мс



На похоронах миллионера Фортескью присутствует похоронный катафалк, переделанный из советского автомобиля ГАЗ-13 «Чайка».
В лондонском парке, где Ланселот встречается с мисс Марпл, он идёт по аллее, на которой расположена афиша спектакля «Мышеловка» (англ. The Mousetrap), поставленного по пьесе Агаты Кристи.
Во время разговора на кухне с миссис Кремп мисс Марпл держит в руках кубик Рубика, изобретённый только в 1974 году.



   Похожие торренты   Торрент   Размер 
В этой теме нет новых непрочитанных сообщений. Тайна «Чёрных дроздов» (1983) DVDRip-AVC от New-Team

21 | 7

744.78 МБ

В этой теме нет новых непрочитанных сообщений. Тайна «Чёрных дроздов» (1983) DVDRip от New-Team

9 | 4

744.43 МБ

В этой теме нет новых непрочитанных сообщений. Тайна черных дроздов (1983) DVDRip от Киномагия

92 | 7

1.37 ГБ

В этой теме нет новых непрочитанных сообщений. Тайна "Черных дроздов" (1983) DVD5

3 | 3

3.33 ГБ

В этой теме нет новых непрочитанных сообщений. Тайна мертвых дроздов (2011) SATRip

3 | 2

475.47 МБ

В этой теме нет новых непрочитанных сообщений. Тайна жителей Луны / Moon Madness (1983) DVDRip

30 | 3

700.12 МБ

В этой теме нет новых непрочитанных сообщений. Тайна третьей планеты (1981) DVDRip от New-Team

18 | 0

743.91 МБ




Вы не можете начинать темы
Вы не можете отвечать на сообщения
Вы не можете редактировать свои сообщения
Вы не можете удалять свои сообщения
Вы не можете добавлять вложения

Перейти:  
Для Мосгорсуда, Роскомнадзора и рекламодателей: mosgorsud-torrent[собачка]yandex.ru
 Вход
ppkBB3cker v.2 © 2008-2014 @ PPK
[ Time : 0.036s | 14 Queries | GZIP : Off ]

Торрент трекер RUTOR.IN, Не можете зайти на rutor.org? Какой новый адрес рутор? Какое зеркало рутор? Не работает rutor.org и зеркала? Тогда наш торрент специально для вас. Rutor.in неофициальное зеркало rutor. В случае если у Вас заблокирован rutor или вдруг Вы не можете на него зайти, то Вы без труда сможете скачать бесплатно и без рекламы последние новинки кино, игр, сериалов и прочего у нас, на Rutor.in. Не нужно использовать прокси, чтобы зайти на рутор, достаточно воспользоваться нашим ресурсом. Все новые фильмы, игры, сериалы, книги и музыка за 2013 и 2014 годы через торрент бесплатно. Скачивайте фильмы в хорошем качестве, игры для пк, xbox, playstation без регистрации. У нас вы найдете новые Зарубежные сериалы и Русские сериалы 2013, 2014, 2015 годов. Оставайтесь с нами, качайте любимые фильмы, игры, сериалы, книги и музыку.