img image001 image001 image001 image001 image001 image001 image001 image001 image001 image001 image001 image001 image001 image001 image001

Planets Sun Sun Sun
Статистика раздачи
Автор: PriZraK | Размер: 744.78 МБ | Добавлен: 15 фев 2014
Раздают: 21    Качают: 8
Скачать торрент
Скачать торрент
Описание торрента

СообщениеДобавлено: 15 фев 2014 


#77
Страна: CCCP
Производство: Мосфильм

Жанр: криминал, детектив
Год выпуска: 1983
Продолжительность: 01:31:50

Перевод: не требуется
Оригинальная аудиодорожка: русский
Cубтитры: нет

Режиссер: Вадим Дербенев

В ролях:
Ита Эвер, Владимир Зельдин, Владимир Седов, Юрий Мороз, Андрей Харитонрв, Всеволод Санаев, Любовь Полищук, Вероника Изотова, Ирина Мазуркевич, Борис Новиков, Тамара Носова...


Глава богатого семейства мистер Джорж Фортескью отравлен. Инспектор Нил ведет расследование и узнает, что покойный был малоприятным человеком. Его смерть была выгодна всем членам семейства. Дело не простое, для отравления был использован редчайший яд. Насильственная смерть служанки Глэдис, а позже хозяйки дома Адель, окончательно запутывает расследование. Но в дело вмешивается мисс Марпл…





Исходник: DVD5 R5
Тип релиза: DVDRip-AVC
Контейнер: MKV

Видео: 696->826x384 (2.150:1), 25 fps, H264 ~ 940 kbps avg, 0.141 bit/pixel
Аудио: 48 kHz, Dolby AC3 2.0, 192 kbps

Раздача от:
Общее
Полное имя : Tayna.Chernyh.drozdov.1983.DVDRip-AVC_[New-team]_by_AVP_Studio.mkv
Формат : Matroska
Версия формата : Version 2
Размер файла : 745 Мбайт
Продолжительность : 1 ч. 31 м.
Общий поток : 1134 Кбит/сек
Дата кодирования : UTC 2014-01-15 17:19:07
Программа кодирования : mkvmerge v6.1.0 ('Old Devil') built on Mar 4 2013 09:10:42
Библиотека кодирования : libebml v1.3.0 + libmatroska v1.4.0

Видео
Идентификатор : 1
Формат : AVC
Формат/Информация : Advanced Video Codec
Профиль формата : High@L4.1
Параметр CABAC формата : Да
Параметр ReFrames формата : 8 кадров
Идентификатор кодека : V_MPEG4/ISO/AVC
Продолжительность : 1 ч. 31 м.
Битрейт : 940 Кбит/сек
Ширина : 696 пикселей
Высота : 384 пикселя
Соотношение сторон : 2,2:1
Соотношение сторон в оригинале : 2,2:1
Режим частоты кадров : Постоянный
Частота кадров : 25,000 кадров/сек
Цветовое пространство : YUV
Субдискретизация насыщенности : 4:2:0
Битовая глубина : 8 бит
Тип развёртки : Прогрессивная
Бит/(Пиксели*Кадры) : 0.141
Размер потока : 604 Мбайт (81%)
Библиотека кодирования : x264 core 138 r2356 a1d3d17
Настройки программы : cabac=1 / ref=8 / deblock=1:-2:-1 / analyse=0x3:0x113 / me=umh / subme=10 / psy=1 / psy_rd=1.00:0.05 / mixed_ref=1 / me_range=32 / chroma_me=1 / trellis=2 / 8x8dct=1 / cqm=0 / deadzone=21,11 / fast_pskip=0 / chroma_qp_offset=-3 / threads=3 / lookahead_threads=1 / sliced_threads=0 / nr=0 / decimate=0 / interlaced=0 / bluray_compat=0 / constrained_intra=0 / bframes=8 / b_pyramid=2 / b_adapt=2 / b_bias=0 / direct=3 / weightb=1 / open_gop=0 / weightp=2 / keyint=250 / keyint_min=25 / scenecut=40 / intra_refresh=0 / rc=2pass / mbtree=0 / bitrate=940 / ratetol=1.0 / qcomp=0.60 / qpmin=0 / qpmax=69 / qpstep=4 / cplxblur=20.0 / qblur=0.5 / ip_ratio=1.40 / pb_ratio=1.30 / aq=1:1.00
Default : Да
Forced : Нет

Аудио
Идентификатор : 2
Формат : AC-3
Формат/Информация : Audio Coding 3
Расширение режима : CM (complete main)
Параметр Endianness формата : Big
Идентификатор кодека : A_AC3
Продолжительность : 1 ч. 31 м.
Вид битрейта : Постоянный
Битрейт : 192 Кбит/сек
Каналы : 2 канала
Расположение каналов : Front: L R
Частота : 48,0 КГц
Битовая глубина : 16 бит
Метод сжатия : С потерями
Размер потока : 126 Мбайт (17%)
Default : Да
Forced : Нет



На похоронах миллионера Фортескью присутствует похоронный катафалк, переделанный из советского автомобиля ГАЗ-13 «Чайка».
В лондонском парке, где Ланселот встречается с мисс Марпл, он идёт по аллее, на которой расположена афиша спектакля «Мышеловка» (англ. The Mousetrap), поставленного по пьесе Агаты Кристи.
Во время разговора на кухне с миссис Кремп мисс Марпл держит в руках кубик Рубика, изобретённый только в 1974 году.



   Похожие торренты   Торрент   Размер 
В этой теме нет новых непрочитанных сообщений. Тайна «Чёрных дроздов» (1983) DVDRip от New-Team

319 | 37

1.46 ГБ

В этой теме нет новых непрочитанных сообщений. Тайна «Чёрных дроздов» (1983) DVDRip от New-Team

9 | 4

744.43 МБ

В этой теме нет новых непрочитанных сообщений. Тайна черных дроздов (1983) DVDRip от Киномагия

92 | 7

1.37 ГБ

В этой теме нет новых непрочитанных сообщений. Тайна "Черных дроздов" (1983) DVD5

3 | 3

3.33 ГБ

В этой теме нет новых непрочитанных сообщений. Тайна мертвых дроздов (2011) SATRip

3 | 2

475.47 МБ

В этой теме нет новых непрочитанных сообщений. Тайна жителей Луны / Moon Madness (1983) DVDRip

30 | 3

700.12 МБ

В этой теме нет новых непрочитанных сообщений. Тайна горного озера (1954) DVDRip-AVC от New-Team

11 | 6

744.18 МБ




Вы не можете начинать темы
Вы не можете отвечать на сообщения
Вы не можете редактировать свои сообщения
Вы не можете удалять свои сообщения
Вы не можете добавлять вложения

Перейти:  
Для Мосгорсуда, Роскомнадзора и рекламодателей: mosgorsud-torrent[собачка]yandex.ru
 Вход
ppkBB3cker v.2 © 2008-2014 @ PPK
[ Time : 0.036s | 15 Queries | GZIP : Off ]

Торрент трекер RUTOR.IN, Не можете зайти на rutor.org? Какой новый адрес рутор? Какое зеркало рутор? Не работает rutor.org и зеркала? Тогда наш торрент специально для вас. Rutor.in неофициальное зеркало rutor. В случае если у Вас заблокирован rutor или вдруг Вы не можете на него зайти, то Вы без труда сможете скачать бесплатно и без рекламы последние новинки кино, игр, сериалов и прочего у нас, на Rutor.in. Не нужно использовать прокси, чтобы зайти на рутор, достаточно воспользоваться нашим ресурсом. Все новые фильмы, игры, сериалы, книги и музыка за 2013 и 2014 годы через торрент бесплатно. Скачивайте фильмы в хорошем качестве, игры для пк, xbox, playstation без регистрации. У нас вы найдете новые Зарубежные сериалы и Русские сериалы 2013, 2014, 2015 годов. Оставайтесь с нами, качайте любимые фильмы, игры, сериалы, книги и музыку.
cron