img image001 image001 image001 image001 image001 image001 image001 image001 image001 image001 image001 image001 image001 image001 image001

Planets Sun Sun Sun
Статистика раздачи
Автор: PriZraK | Размер: 1.45 ГБ | Добавлен: 15 фев 2014
Раздают: 21    Качают: 6
Скачать торрент
Скачать торрент
Описание торрента

СообщениеДобавлено: 15 фев 2014 


#77
Страна: CCCP
Производство: Ленфильм

Жанр: драма, военный
Год выпуска: 1983
Продолжительность: 01:30:24

Перевод: не требуется
Оригинальная аудиодорожка: русский
Cубтитры: нет

Режиссер: Семен Аранович

В ролях:
Родион Нахапетов, Алексей Жарков, Андрей Болтнев, Станислав Садальский, Татьяна Кравченко, Вера Глаголева, Надежда Лукашевич, Всеволод Шиловский, Сергей Бехтерев, Александр Филиппенко, Юрий Дуванов, Юрий Кузнецов, Эдуард Володарский, Елизавета Никищихина...


Фильм по мотивам военных рассказов Юрия Германа. 1944-й год. Вторая мировая война. Полк морской авиации базируется на небольшом аэродроме. Для летчиков это одновременно — и фронт, и тыл. Они выполняют боевые задания и возвращаются к своим семьям. Но каждый вылет может оказаться последним…





Исходник: DVD9 R5
Тип релиза: DVDRip
Контейнер: AVI

Видео: 720x528 (4:3), 25 fps, XviD ~ 1846 kbps avg, 0.194 bit/pixel
Аудио: 48 kHz, Dolby Digital AC3 5.1, 448 kbps

Раздача от:
Общее
Полное имя : Torpedonoscy.1983.DVDRip_[New-team]_by_AVP_Studio.avi
Формат : AVI
Формат/Информация : Audio Video Interleave
Размер файла : 1,45 Гбайт
Продолжительность : 1 ч. 30 м.
Общий поток : 2303 Кбит/сек
Программа кодирования : VirtualDubModRus 1.5.10.2 (build 2542/release)
Библиотека кодирования : VirtualDubMod build 2542/release

Видео
Идентификатор : 0
Формат : MPEG-4 Visual
Профиль формата : Advanced Simple@L5
Параметр BVOP формата : 1
Параметр QPel формата : Нет
Параметр GMC формата : Без точки перехода
Параметр матрицы формата : Выборочная
Идентификатор кодека : XVID
Идентификатор кодека/Подсказка : XviD
Продолжительность : 1 ч. 30 м.
Битрейт : 1846 Кбит/сек
Ширина : 720 пикселей
Высота : 528 пикселей
Соотношение сторон : 4:3
Частота кадров : 25,000 кадров/сек
Цветовое пространство : YUV
Субдискретизация насыщенности : 4:2:0
Битовая глубина : 8 бит
Тип развёртки : Прогрессивная
Метод сжатия : С потерями
Бит/(Пиксели*Кадры) : 0.194
Размер потока : 1,17 Гбайт (80%)
Библиотека кодирования : XviD 73

Аудио
Идентификатор : 1
Формат : AC-3
Формат/Информация : Audio Coding 3
Расширение режима : CM (complete main)
Параметр Endianness формата : Big
Идентификатор кодека : 2000
Продолжительность : 1 ч. 30 м.
Вид битрейта : Постоянный
Битрейт : 448 Кбит/сек
Каналы : 6 каналов
Расположение каналов : Front: L C R, Side: L R, LFE
Частота : 48,0 КГц
Битовая глубина : 16 бит
Метод сжатия : С потерями
Задержка видео : 480 мс.
Размер потока : 290 Мбайт (19%)
Выравнивание : Разделение по промежуткам
Продолжительность промежутка : 40 мс. (1,00 видеокадр)
Время предзагрузки промежутка : 500 мс



По отзывам многочисленных ветеранов Великой Отечественной войны - лётчиков, среди фильмов об авиации в войне фильм "Торпедоносцы" является наиболее приближенным к реальности.



   Похожие торренты   Торрент   Размер 
В этой теме нет новых непрочитанных сообщений. Торпедоносцы (1983) DVDRip от New-Team

5 | 12

744.25 МБ

В этой теме нет новых непрочитанных сообщений. Торпедоносцы (1983) DVDRip-AVC от New-Team

79 | 6

1.46 ГБ

В этой теме нет новых непрочитанных сообщений. Торпедоносцы (1983) DVDRip

208 | 3

1.46 ГБ

В этой теме нет новых непрочитанных сообщений. Торпедоносцы (1983) DVDRip от Alekxandr48

9 | 4

699.99 МБ

В этой теме нет новых непрочитанных сообщений. Торпедоносцы (1983) DVDRip-AVC от ExKinoRay

40 | 2

1.8 ГБ

В этой теме нет новых непрочитанных сообщений. Торпедоносцы (1983) DVD9 l Реставрация

7 | 7

5.45 ГБ

В этой теме нет новых непрочитанных сообщений. Петля (1983) DVDRip от New-Team

18 | 8

2.18 ГБ




Вы не можете начинать темы
Вы не можете отвечать на сообщения
Вы не можете редактировать свои сообщения
Вы не можете удалять свои сообщения
Вы не можете добавлять вложения

Перейти:  
Для Мосгорсуда, Роскомнадзора и рекламодателей: mosgorsud-torrent[собачка]yandex.ru
 Вход
ppkBB3cker v.2 © 2008-2014 @ PPK
[ Time : 0.356s | 15 Queries | GZIP : Off ]

cron