img image001 image001 image001 image001 image001 image001 image001 image001 image001 image001 image001 image001 image001 image001 image001

Planets Sun Sun Sun
Статистика раздачи
Автор: PriZraK | Размер: 744.25 МБ | Добавлен: 15 фев 2014
Раздают: 4    Качают: 11
Скачать торрент
Скачать торрент
Описание торрента

СообщениеДобавлено: 15 фев 2014 


#77
Страна: CCCP
Производство: Ленфильм

Жанр: драма, военный
Год выпуска: 1983
Продолжительность: 01:30:24

Перевод: не требуется
Оригинальная аудиодорожка: русский
Cубтитры: нет

Режиссер: Семен Аранович

В ролях:
Родион Нахапетов, Алексей Жарков, Андрей Болтнев, Станислав Садальский, Татьяна Кравченко, Вера Глаголева, Надежда Лукашевич, Всеволод Шиловский, Сергей Бехтерев, Александр Филиппенко, Юрий Дуванов, Юрий Кузнецов, Эдуард Володарский, Елизавета Никищихина...


Фильм по мотивам военных рассказов Юрия Германа. 1944-й год. Вторая мировая война. Полк морской авиации базируется на небольшом аэродроме. Для летчиков это одновременно — и фронт, и тыл. Они выполняют боевые задания и возвращаются к своим семьям. Но каждый вылет может оказаться последним…





Исходник: DVD9 R5
Тип релиза: DVDRip
Контейнер: AVI

Видео: 624x448 (1,393:1), 25 fps, XviD ~ 1013 kbps avg, 0.145 bit/pixel
Аудио: 48 kHz, MP3 2.0, 128 kbps

Раздача от:
Общее
Полное имя : Torpedonoscy.1983.DVDRip-745_[New-team]_by_AVP_Studio.avi
Формат : AVI
Формат/Информация : Audio Video Interleave
Размер файла : 744 Мбайт
Продолжительность : 1 ч. 30 м.
Общий поток : 1151 Кбит/сек
Программа кодирования : VirtualDubModRus 1.5.10.2 (build 2542/release)
Библиотека кодирования : VirtualDubMod build 2542/release

Видео
Идентификатор : 0
Формат : MPEG-4 Visual
Профиль формата : Advanced Simple@L5
Параметр BVOP формата : 1
Параметр QPel формата : Нет
Параметр GMC формата : Без точки перехода
Параметр матрицы формата : Выборочная
Идентификатор кодека : XVID
Идентификатор кодека/Подсказка : XviD
Продолжительность : 1 ч. 30 м.
Битрейт : 1013 Кбит/сек
Ширина : 624 пикселя
Высота : 448 пикселей
Соотношение сторон : 1,393
Частота кадров : 25,000 кадров/сек
Цветовое пространство : YUV
Субдискретизация насыщенности : 4:2:0
Битовая глубина : 8 бит
Тип развёртки : Прогрессивная
Метод сжатия : С потерями
Бит/(Пиксели*Кадры) : 0.145
Размер потока : 655 Мбайт (88%)
Библиотека кодирования : XviD 73

Аудио
Идентификатор : 1
Формат : MPEG Audio
Версия формата : Version 1
Профиль формата : Layer 3
Идентификатор кодека : 55
Идентификатор кодека/Подсказка : MP3
Продолжительность : 1 ч. 30 м.
Вид битрейта : Постоянный
Битрейт : 128 Кбит/сек
Каналы : 2 канала
Частота : 48,0 КГц
Метод сжатия : С потерями
Размер потока : 82,7 Мбайт (11%)
Выравнивание : Соединение по промежуткам
Продолжительность промежутка : 40 мс. (1,00 видеокадр)
Время предзагрузки промежутка : 504 мс.
Библиотека кодирования : LAME3.99r
Настройки программы : -m s -V 4 -q 2 -lowpass 17 -b 128



По отзывам многочисленных ветеранов Великой Отечественной войны - лётчиков, среди фильмов об авиации в войне фильм "Торпедоносцы" является наиболее приближенным к реальности.



   Похожие торренты   Торрент   Размер 
В этой теме нет новых непрочитанных сообщений. Торпедоносцы (1983) DVDRip от New-Team

19 | 6

1.45 ГБ

В этой теме нет новых непрочитанных сообщений. Торпедоносцы (1983) DVDRip-AVC от New-Team

78 | 5

1.46 ГБ

В этой теме нет новых непрочитанных сообщений. Торпедоносцы (1983) DVDRip

208 | 3

1.46 ГБ

В этой теме нет новых непрочитанных сообщений. Торпедоносцы (1983) DVDRip от Alekxandr48

9 | 4

699.99 МБ

В этой теме нет новых непрочитанных сообщений. Торпедоносцы (1983) DVDRip-AVC от ExKinoRay

50 | 2

1.8 ГБ

В этой теме нет новых непрочитанных сообщений. Торпедоносцы (1983) DVD9 l Реставрация

7 | 7

5.45 ГБ

В этой теме нет новых непрочитанных сообщений. Непобедимый (1983) DVDRip от New-Team

50 | 37

742.81 МБ




Вы не можете начинать темы
Вы не можете отвечать на сообщения
Вы не можете редактировать свои сообщения
Вы не можете удалять свои сообщения
Вы не можете добавлять вложения

Перейти:  
Для Мосгорсуда, Роскомнадзора и рекламодателей: mosgorsud-torrent[собачка]yandex.ru
 Вход
ppkBB3cker v.2 © 2008-2014 @ PPK
[ Time : 0.028s | 15 Queries | GZIP : Off ]

Торрент трекер RUTOR.IN, Не можете зайти на rutor.org? Какой новый адрес рутор? Какое зеркало рутор? Не работает rutor.org и зеркала? Тогда наш торрент специально для вас. Rutor.in неофициальное зеркало rutor. В случае если у Вас заблокирован rutor или вдруг Вы не можете на него зайти, то Вы без труда сможете скачать бесплатно и без рекламы последние новинки кино, игр, сериалов и прочего у нас, на Rutor.in. Не нужно использовать прокси, чтобы зайти на рутор, достаточно воспользоваться нашим ресурсом. Все новые фильмы, игры, сериалы, книги и музыка за 2013 и 2014 годы через торрент бесплатно. Скачивайте фильмы в хорошем качестве, игры для пк, xbox, playstation без регистрации. У нас вы найдете новые Зарубежные сериалы и Русские сериалы 2013, 2014, 2015 годов. Оставайтесь с нами, качайте любимые фильмы, игры, сериалы, книги и музыку.
cron