img image001 image001 image001 image001 image001 image001 image001 image001 image001 image001 image001 image001 image001 image001 image001

Planets Sun Sun Sun
Статистика раздачи
Автор: PriZraK | Размер: 744.12 МБ | Добавлен: 15 фев 2014
Раздают: 92    Качают: 5
Скачать торрент
Скачать торрент
Описание торрента

СообщениеДобавлено: 15 фев 2014 




Страна: СССР
Жанр: комедия, приключения, семейный

Год выпуска: 1961

Продолжительность: 01:27:07


Перевод: Не требуется

Режиссер: Владимир Фетин

В ролях:

Алексей Грибов (капитан), Иван Дмитриев (старпом), Маргарита Назарова (Марианна), Евгений Леонов (Шулейкин), Владимир Белокуров (боцман), Николай Волков (агент), Александр Бениаминов (укротитель), Аркадий Трусов (кок), Алексей Смирнов (Кныш), Алексей Кожевников (радист), П. Алябин, Алиса Фрейндлих (помощница Шулейкина в буфете цирка)
Дублёры: Галина Короткевич (Марианна), Владимир Трошин (боцман), Ефим Копелян (агент)


Описание: На советский теплоход погрузили опасный груз - тигров и львов, а сопровождать приставили буфетчика... Во время плавания маленькая обезьянка, подаренная капитану, открывает клетки. Хищники выходят на свободу, вся команда в ужасе разбегается. И только племяннице капитана удается спасти положение, укротив диких зверей...






Качество: HDRip | sample
Контейнер: AVI
Исходник: BDRip 720p
Видео: XviD, 704x512 (1.375), 1056 kbps, 23,976 fps, 0,122 bpp
Аудио: MP3 / 2.0 / 48 kHz / 128 kbps /


General
Complete name : D:Полосатый.рейс.1961.HDRip745.[New-Team].avi
Format : AVI
Format/Info : Audio Video Interleave
File size : 744 MiB
Duration : 1h 27mn
Overall bit rate : 1 194 Kbps
Writing application : VirtualDubMod 1.5.10.3 | www.virtualdub-fr.org || (build 2550/release)
Writing library : VirtualDubMod build 2550/release

Video
ID : 0
Format : MPEG-4 Visual
Format profile : Advanced Simple@L5
Format settings, BVOP : 1
Format settings, QPel : No
Format settings, GMC : No warppoints
Format settings, Matrix : Custom
Codec ID : XVID
Codec ID/Hint : XviD
Duration : 1h 27mn
Bit rate : 1 057 Kbps
Width : 704 pixels
Height : 512 pixels
Display aspect ratio : 1.375
Frame rate : 23.976 fps
Color space : YUV
Chroma subsampling : 4:2:0
Bit depth : 8 bits
Scan type : Progressive
Compression mode : Lossy
Bits/(Pixel*Frame) : 0.122
Stream size : 659 MiB (88%)
Writing library : XviD 65

Audio
ID : 1
Format : MPEG Audio
Format version : Version 1
Format profile : Layer 3
Mode : Joint stereo
Codec ID : 55
Codec ID/Hint : MP3
Duration : 1h 27mn
Bit rate mode : Constant
Bit rate : 128 Kbps
Channel(s) : 2 channels
Sampling rate : 48.0 KHz
Compression mode : Lossy
Stream size : 79.8 MiB (11%)
Alignment : Aligned on interleaves
Interleave, duration : 42 ms (1.00 video frame)
Interleave, preload duration : 504 ms
Writing library : LAME3.99r
Encoding settings : -m j -V 4 -q 2 -lowpass 17 -b 128



Релиз от:



   Похожие торренты   Торрент   Размер 
В этой теме нет новых непрочитанных сообщений. Полосатый рейс (1961) HDRip-AVC от New-Team

122 | 49

744.64 МБ

В этой теме нет новых непрочитанных сообщений. Полосатый рейс (1961) HDRip от New-Team

177 | 26

1.45 ГБ

В этой теме нет новых непрочитанных сообщений. Полосатый рейс / Полосатый рейс (1961) BDRip 1080p

48 | 40

7.97 ГБ

В этой теме нет новых непрочитанных сообщений. Полосатый рейс (1961) HDRip от MAGNAT231 | КПК

148 | 7

361.83 МБ

В этой теме нет новых непрочитанных сообщений. Полосатый рейс (1961) DVDRip

118 | 6

1.99 ГБ

В этой теме нет новых непрочитанных сообщений. Полосатый рейс (1961) DVDRip от Youtracker

35 | 5

742.77 МБ

В этой теме нет новых непрочитанных сообщений. Полосатый рейс (1961) BDRip от HQCLUB

251 | 23

1.45 ГБ




Вы не можете начинать темы
Вы не можете отвечать на сообщения
Вы не можете редактировать свои сообщения
Вы не можете удалять свои сообщения
Вы не можете добавлять вложения

Перейти:  
Для Мосгорсуда, Роскомнадзора и рекламодателей: mosgorsud-torrent[собачка]yandex.ru
 Вход
ppkBB3cker v.2 © 2008-2014 @ PPK
[ Time : 0.037s | 15 Queries | GZIP : Off ]

Торрент трекер RUTOR.IN, Не можете зайти на rutor.org? Какой новый адрес рутор? Какое зеркало рутор? Не работает rutor.org и зеркала? Тогда наш торрент специально для вас. Rutor.in неофициальное зеркало rutor. В случае если у Вас заблокирован rutor или вдруг Вы не можете на него зайти, то Вы без труда сможете скачать бесплатно и без рекламы последние новинки кино, игр, сериалов и прочего у нас, на Rutor.in. Не нужно использовать прокси, чтобы зайти на рутор, достаточно воспользоваться нашим ресурсом. Все новые фильмы, игры, сериалы, книги и музыка за 2013 и 2014 годы через торрент бесплатно. Скачивайте фильмы в хорошем качестве, игры для пк, xbox, playstation без регистрации. У нас вы найдете новые Зарубежные сериалы и Русские сериалы 2013, 2014, 2015 годов. Оставайтесь с нами, качайте любимые фильмы, игры, сериалы, книги и музыку.