img image001 image001 image001 image001 image001 image001 image001 image001 image001 image001 image001 image001 image001 image001 image001

Planets Sun Sun Sun
Статистика раздачи
Автор: PriZraK | Размер: 4.55 ГБ | Добавлен: 15 фев 2014
Раздают: 29    Качают: 6
Скачать торрент
Скачать торрент
Описание торрента

СообщениеДобавлено: 15 фев 2014 




Информация о фильме
Название: Смеханические приключения Тарапуньки и Штепселя
Год выхода: 1970
Жанр: Комедия, музыкальный фильм
Режиссеры: Юрий Тимошенко, Ефим Березин
В ролях: Ефим Березин, Юрий Тимошенко, Савелий Крамаров, Андрей Ищенко (II), Наталья Степанова, Игорь Дивов, Александр Кисс, Виолетта Кисс, Юлия Пашковская (Тимошенко), Оксана Костюк, Светлана Пшеничная, Александр Баланцев, сестры Бородавкины, Изабелла Мень

О фильме:
Телефильм о веселых приключениях популярных артистов эстрады Штепселя и Тарапуньки и изобретенной ими "смеханической машины", с вкраплениями эстрадных номеров и интермедий.


Страна: СССР
Студия: Киностудия им. Довженко
Продолжительность: 2 х ~01:04:00
Перевод: Не требуется

Файл
Кодек: MPEG-2 Video
Качество: DVBRip
Видео: 720x576, ~4830 kbps avg, 25.000 fps
Звук: MP2, 192 Kbps, 48.0 KHz, 2ch



Общее
Полное имя : I:Smehanicheskie.Priklucheniya.Tarapun`ki.I.Shtepselya.1970.DVBRipSmehanicheskie.Priklucheniya.Tarapun`ki.I.Shtepselya.1970.DVBRipSmehanicheskie.Priklucheniya.Tarapun`ki.I.Shtepselya.(01).1970.DVBRip.mpg
Формат : MPEG-PS
Размер файла : 2,28 Гбайт
Продолжительность : 1 ч. 3 м.
Режим общего битрейта : Переменный
Общий поток : 5123 Кбит/сек

Видео
Идентификатор : 224 (0xE0)
Формат : MPEG Video
Версия формата : Version 2
Профиль формата : Main@Main
Параметр BVOP формата : Да
Параметр матрицы формата : Выборочная
Параметр GOP формата : Variable
Продолжительность : 1 ч. 3 м.
Вид битрейта : Переменный
Битрейт : 4829 Кбит/сек
Максимальный битрейт : 15,0 Мбит/сек
Ширина : 720 пикселей
Высота : 576 пикселей
Соотношение сторон : 4:3
Частота кадров : 25,000 кадров/сек
Стандарт вещания : PAL
Цветовое пространство : YUV
Субдискретизация насыщенности : 4:2:0
Битовая глубина : 8 бит
Тип развёртки : Чересстрочная
Порядок развёртки : Верхнее поле первое
Метод сжатия : С потерями
Бит/(Пиксели*Кадры) : 0.466
Временной код первого кадра : 00:00:00:00
Оригинал временного кода : Group of pictures header
Размер потока : 2,15 Гбайт (94%)

Аудио
Идентификатор : 192 (0xC0)
Формат : MPEG Audio
Версия формата : Version 1
Профиль формата : Layer 2
Продолжительность : 1 ч. 3 м.
Вид битрейта : Постоянный
Битрейт : 192 Кбит/сек
Каналы : 2 канала
Частота : 48,0 КГц
Метод сжатия : С потерями
Размер потока : 87,5 Мбайт (4%)




   Похожие торренты   Торрент   Размер 
В этой теме нет новых непрочитанных сообщений. Смеханические приключения Тарапуньки и Штепселя (1970) DVD5

99 | 37

4.06 ГБ

В этой теме нет новых непрочитанных сообщений. Смеханические приключения Тарапуньки и Штепселя (1970) SATRip

84 | 3

2.18 ГБ

В этой теме нет новых непрочитанных сообщений. Преступник сидит на стадионе Уэмбли / Der Mörder sitzt im Wembley-Stadion (1970) DVBRip | D

88 | 39

2.16 ГБ

В этой теме нет новых непрочитанных сообщений. Приключения желтого чемоданчика (1970) DVD5

22 | 7

3.39 ГБ

В этой теме нет новых непрочитанных сообщений. Приключения желтого чемоданчика (1970) DVDRip

630 | 43

1.37 ГБ

В этой теме нет новых непрочитанных сообщений. Приключения Жерара / The Adventures of Gerard (1970) HDTVRip | P

90 | 9

1.46 ГБ

В этой теме нет новых непрочитанных сообщений. Приключения желтого чемоданчика (1970) DVDRip от MediaClub | КПК

170 | 7

335.43 МБ




Вы не можете начинать темы
Вы не можете отвечать на сообщения
Вы не можете редактировать свои сообщения
Вы не можете удалять свои сообщения
Вы не можете добавлять вложения

Перейти:  
Для Мосгорсуда, Роскомнадзора и рекламодателей: mosgorsud-torrent[собачка]yandex.ru
 Вход
ppkBB3cker v.2 © 2008-2014 @ PPK
[ Time : 0.035s | 14 Queries | GZIP : On ]

Торрент трекер RUTOR.IN, Не можете зайти на rutor.org? Какой новый адрес рутор? Какое зеркало рутор? Не работает rutor.org и зеркала? Тогда наш торрент специально для вас. Rutor.in неофициальное зеркало rutor. В случае если у Вас заблокирован rutor или вдруг Вы не можете на него зайти, то Вы без труда сможете скачать бесплатно и без рекламы последние новинки кино, игр, сериалов и прочего у нас, на Rutor.in. Не нужно использовать прокси, чтобы зайти на рутор, достаточно воспользоваться нашим ресурсом. Все новые фильмы, игры, сериалы, книги и музыка за 2013 и 2014 годы через торрент бесплатно. Скачивайте фильмы в хорошем качестве, игры для пк, xbox, playstation без регистрации. У нас вы найдете новые Зарубежные сериалы и Русские сериалы 2013, 2014, 2015 годов. Оставайтесь с нами, качайте любимые фильмы, игры, сериалы, книги и музыку.