img image001 image001 image001 image001 image001 image001 image001 image001 image001 image001 image001 image001 image001 image001 image001

Planets Sun Sun Sun
Статистика раздачи
Автор: PriZraK | Размер: 2.24 ГБ | Добавлен: 15 фев 2014
Раздают: 139    Качают: 13
Скачать торрент
Скачать торрент
Описание торрента

СообщениеДобавлено: 15 фев 2014 




Информация о фильме
Название: Романовы. Венценосная Семья
Год выхода: 2000
Жанр: Драма, биография, история
Режиссер: Глеб Панфилов
В ролях: Александр Галибин, Линда Беллингхэм, Володя Грачев, Юлия Новикова, Ксения Качалина, Ольга Васильева, Ольга Будина, Игорь Дмитриев, Вячеслав Богачев, Юрий Каюров, Валерий Хромушкин, Николай Пеньков, Олег Басилашвили, Иван Саутов, Валерий Доронин, Александр Липов, Максим Панфилов, Юрий Клепиков, Владимир Конкин, Валерий Матвеев, Игорь Регнер, Эрнст Романов, Андрей Харитонов, Владимир Ширяев, Ребекка Лейси, Вячеслав Гарин, Виктор Тейдер, Святослав Кузьменко, Всеволод Соболев, Кирилл Литовченко, Андрей Чуманов, Михаил Ефремов, Анатолий Сливников, Александр Алексеев, Юрий Орлов, Аристарх Ливанов, Александр Филиппенко, Кирилл Козаков, Валерий Кухарешин, Игорь Скляр, Анатолий Панфилов, Евгений Герасимов, Любомирас Лауцявичус, Виталий Вашедский, Игорь Лифанов, Владислав Омарченков, Алексей Солпанов, Алексей Панин, Саша Адлер, Сергей Дьячков, Олег Березкин, Николай Панфилов, Дмитрий Воронов, Василий Бездушный, Вернер Оамер, Владимир Троянов, Дмитрий Бобров

О фильме:
Этот фильм - история жизни и смерти последнего российского царя и его семьи. Частная жизнь императора Николая II. Серия семейных портретов в интерьере. Интерьеры постепенно меняются от царскосельских золоченых рам до подвальной домовины ипатьевского дома. Считается, что с каждой фотографией из человека уходит некоторое количество жизни. Фильм Глеба Панфилова – это череда парадных и этюдных фотопортретов, где все они – Ники, Аликс, дети - льнут друг к другу в течении их жизни, засасываемой в объектив камеры. До тех пор, пока не придет главный фотограф, Юровский (его фотоателье было самым известным в Екатеринбурге), и не расставит их для окончательно последнего снимка – из десятка стволов.

Главные большевики страны, конспиративно совещающиеся в кулуарах Большого Театра, напоминают кукол из популярной телевизионной программы. От эпизода к эпизоду меняются люди, окружающие семью: от лиц – к харям, от фамилий – к "не зови батько", к Иванам, не помнящим родства. Историческая трагедия переплетается с личной: этот глубоко несчастный, чуждый и власти, и революции, человек фактически оказался причастным к той катастрофе, что потрясла страну.

Страна: Россия
Студия: Госкино
Продолжительность: 02:15:16
Перевод: не требуется

Файл
Кодек: h.264
Качество: DVDRip-AVC
Видео: 704x448 (1.661) @ 744x448 (анаморф), 25.000 fps, AVC, ~1926 Kbps, 0.244 bits/pixel
Звук: Русский, 48.0 KHz, AC3, 6 ch, 448 Kbps
Субтитры: нет

Общее
Уникальный идентификатор : 180319815907906980957423742259412739508 (0x87A855534D67AE4088EEF4A57FF225B4)
Полное имя : D:FilmsRomanovi_Ventsenosnaya_Semja.2000.DVDRip-AVC.mkv
Формат : Matroska
Версия формата : Version 4 / Version 2
Размер файла : 2,24 Гбайт
Продолжительность : 2 ч. 15 м.
Общий поток : 2375 Кбит/сек
Дата кодирования : UTC 2014-01-18 06:36:09
Программа кодирования : mkvmerge v6.7.0 ('Back to the Ground') 64bit built on Jan 8 2014 15:10:52
Библиотека кодирования : libebml v1.3.0 + libmatroska v1.4.1

Видео
Идентификатор : 1
Формат : AVC
Формат/Информация : Advanced Video Codec
Профиль формата : High@L4.1
Параметр CABAC формата : Да
Параметр ReFrames формата : 16 кадров
Идентификатор кодека : V_MPEG4/ISO/AVC
Продолжительность : 2 ч. 15 м.
Битрейт : 1926 Кбит/сек
Ширина : 704 пикселя
Высота : 448 пикселей
Соотношение сторон : 1,661
Режим частоты кадров : Постоянный
Частота кадров : 25,000 кадров/сек
Цветовое пространство : YUV
Субдискретизация насыщенности : 4:2:0
Битовая глубина : 8 бит
Тип развёртки : Прогрессивная
Бит/(Пиксели*Кадры) : 0.244
Размер потока : 1,78 Гбайт (79%)
Библиотека кодирования : x264 core 138 r2358 9e941d1
Настройки программы : cabac=1 / ref=16 / deblock=1:0:0 / analyse=0x3:0x133 / me=umh / subme=10 / psy=1 / psy_rd=1.05:0.10 / mixed_ref=1 / me_range=32 / chroma_me=1 / trellis=2 / 8x8dct=1 / cqm=0 / deadzone=21,11 / fast_pskip=0 / chroma_qp_offset=-3 / threads=8 / lookahead_threads=2 / sliced_threads=0 / nr=0 / decimate=0 / interlaced=0 / bluray_compat=0 / constrained_intra=0 / bframes=12 / b_pyramid=2 / b_adapt=2 / b_bias=0 / direct=3 / weightb=1 / open_gop=0 / weightp=2 / keyint=250 / keyint_min=25 / scenecut=40 / intra_refresh=0 / rc_lookahead=60 / rc=2pass / mbtree=0 / bitrate=1926 / ratetol=1.0 / qcomp=0.60 / qpmin=0 / qpmax=60 / qpstep=4 / cplxblur=20.0 / qblur=0.5 / vbv_maxrate=50000 / vbv_bufsize=62500 / nal_hrd=none / ip_ratio=1.40 / pb_ratio=1.30 / aq=1:1.00
Default : Нет
Forced : Нет
Коэффициенты матрицы : BT.601

Аудио
Идентификатор : 2
Формат : AC-3
Формат/Информация : Audio Coding 3
Расширение режима : CM (complete main)
Параметр Endianness формата : Big
Идентификатор кодека : A_AC3
Продолжительность : 2 ч. 15 м.
Вид битрейта : Постоянный
Битрейт : 448 Кбит/сек
Каналы : 6 каналов
Расположение каналов : Front: L C R, Side: L R, LFE
Частота : 48,0 КГц
Битовая глубина : 16 бит
Метод сжатия : С потерями
Размер потока : 433 Мбайт (19%)
Язык : Russian
Default : Да
Forced : Нет

Меню
00:00:00.000 : en:Chapter 01
00:00:00.640 : en:Chapter 02
00:07:58.560 : en:Chapter 03
00:11:31.920 : en:Chapter 04
00:17:53.760 : en:Chapter 05
00:23:46.880 : en:Chapter 06
00:29:36.720 : en:Chapter 07
00:38:11.200 : en:Chapter 08
00:42:11.600 : en:Chapter 09
00:47:32.720 : en:Chapter 10
00:54:42.880 : en:Chapter 11
00:58:21.760 : en:Chapter 12
01:05:28.000 : en:Chapter 13
01:11:46.000 : en:Chapter 14
01:17:36.160 : en:Chapter 15
01:23:40.320 : en:Chapter 16
01:29:38.480 : en:Chapter 17
01:36:48.320 : en:Chapter 18
01:41:30.480 : en:Chapter 19
01:48:23.520 : en:Chapter 20
01:53:18.560 : en:Chapter 21
02:00:08.240 : en:Chapter 22
02:05:11.280 : en:Chapter 23
02:10:48.160 : en:Chapter 24


Исходник R5 DVD9. Правильный кроп - отсутствие синей полосы слева, раздражающей при просмотре.

frame I:1637 Avg QP:15.63 size: 57597
frame P:44643 Avg QP:18.44 size: 19948
frame B:156626 Avg QP:19.96 size: 6184




Релиз от: Temperest



   Похожие торренты   Торрент   Размер 
В этой теме нет новых непрочитанных сообщений. Романовы. Венценосная Семья (2000) DVDRip

186 | 16

1.37 ГБ

В этой теме нет новых непрочитанных сообщений. Полено / Otesánek (2000) DVDRip-AVC от Temperest

41 | 3

2.84 ГБ

В этой теме нет новых непрочитанных сообщений. Хлеб и Розы / Bread and Roses (2000) DVDRip-AVC от Temperest

0 | 2

2.7 ГБ

В этой теме нет новых непрочитанных сообщений. Романовы [01-08 из 08] (2013) DVDRip-AVC от New-Team | лицензия

109 | 25

6.37 ГБ

В этой теме нет новых непрочитанных сообщений. Романовы [01-08 из 08] (2013) DVDRip от New-Team | лицензия

1305 | 140

6.38 ГБ

В этой теме нет новых непрочитанных сообщений. Джордж Вашингтон / George Washington (2000) BDRemux от Temperest

1 | 6

23.44 ГБ

В этой теме нет новых непрочитанных сообщений. Джордж Вашингтон / George Washington (2000) BDRip 720p от Temperest

52 | 48

3.98 ГБ




Вы не можете начинать темы
Вы не можете отвечать на сообщения
Вы не можете редактировать свои сообщения
Вы не можете удалять свои сообщения
Вы не можете добавлять вложения

Перейти:  
Для Мосгорсуда, Роскомнадзора и рекламодателей: mosgorsud-torrent[собачка]yandex.ru
 Вход
ppkBB3cker v.2 © 2008-2014 @ PPK
[ Time : 4.840s | 14 Queries | GZIP : Off ]

Торрент трекер RUTOR.IN, Не можете зайти на rutor.org? Какой новый адрес рутор? Какое зеркало рутор? Не работает rutor.org и зеркала? Тогда наш торрент специально для вас. Rutor.in неофициальное зеркало rutor. В случае если у Вас заблокирован rutor или вдруг Вы не можете на него зайти, то Вы без труда сможете скачать бесплатно и без рекламы последние новинки кино, игр, сериалов и прочего у нас, на Rutor.in. Не нужно использовать прокси, чтобы зайти на рутор, достаточно воспользоваться нашим ресурсом. Все новые фильмы, игры, сериалы, книги и музыка за 2013 и 2014 годы через торрент бесплатно. Скачивайте фильмы в хорошем качестве, игры для пк, xbox, playstation без регистрации. У нас вы найдете новые Зарубежные сериалы и Русские сериалы 2013, 2014, 2015 годов. Оставайтесь с нами, качайте любимые фильмы, игры, сериалы, книги и музыку.