img image001 image001 image001 image001 image001 image001 image001 image001 image001 image001 image001 image001 image001 image001 image001

Planets Sun Sun Sun
Статистика раздачи
Автор: PriZraK | Размер: 1.95 ГБ | Добавлен: 15 фев 2014
Раздают: 92    Качают: 26
Скачать торрент
Скачать торрент
Описание торрента

СообщениеДобавлено: 15 фев 2014 




Информация о фильме
Оригинальное название: На белом катере
Год выхода: 2005
Жанр: Комедия
Режиссер: Владимир Мельниченко
В ролях: Андрей Краско, Антон Лирник, Алексей Панин, Андрей Богданович, Гарик Бирча, Владимир Комаров, Владимир Ямненко, Вадим Мурованый, Олеся Жураковская, Людмила Смородина, Анна Дьяченко, Виктор Андриенко, Илья Ноябрев, Марыся Горобец, Андрей Богданович

О фильме:
Владелец элитного частного пансионата Сан Саныч — человек с сомнительным прошлым получает задание от представителей турецкой мафии — встретить некий очень «ценный» товар. Следующим утром всю страну облетает шокирующая новость о краже бесценного полотна работы Ильи Репина — «Запорожцы пишут письмо турецкому султану». Сан Саныч принимает в свой отель группу постояльцев — каждый их которых по странному совпадению обладает описанной мафиози сумкой, а значит может оказаться курьером. Ситуацию осложняет то, что каждый из приехавших ведет себя подозрительно: известный футболист Шутенко прячет от тренера загадочный кофр, скромница Мисс Дебальцево по вечерам превращается в женщину-вамп и соблазняет гостей по одному, телеведущий-кулинар шпионит за постояльцами.


Страна: Украина
Студия: Продюсерский центр "АЛЯСКА"
Продолжительность: 2 х ~ 01:11:02
Язык: Русский

Файл
Кодек: XviD
Качество: DVDRip
Видео: ~ 1650 Кбит/с, 720x544, 25.000 кадр/с
Звук: (АС3, 2 ch, 256 Кбит/с)

Семпл


Общее
Полное имя : Na.belom.katere.2005.DVDRip.MediaClubna.belom.katere.01.2005.DVDRip.MediaClub.avi
Формат : AVI
Формат/Информация : Audio Video Interleave
Размер файла : 996 Мбайт
Продолжительность : 1 ч. 11 м.
Общий поток : 1961 Кбит/сек
Программа кодирования : VirtualDubMod 1.5.10.3 | www.virtualdub-fr.org || (build 2550/release)
Библиотека кодирования : VirtualDubMod build 2550/release

Видео
Идентификатор : 0
Формат : MPEG-4 Visual
Профиль формата : Advanced Simple@L5
Параметр BVOP формата : 2
Параметр QPel формата : Нет
Параметр GMC формата : Без точки перехода
Параметр матрицы формата : Default (MPEG)
Идентификатор кодека : XVID
Идентификатор кодека/Подсказка : XviD
Продолжительность : 1 ч. 11 м.
Битрейт : 1695 Кбит/сек
Ширина : 720 пикселей
Высота : 544 пикселя
Соотношение сторон : 4:3
Частота кадров : 25,000 кадров/сек
Цветовое пространство : YUV
Субдискретизация насыщенности : 4:2:0
Битовая глубина : 8 бит
Тип развёртки : Прогрессивная
Метод сжатия : С потерями
Бит/(Пиксели*Кадры) : 0.173
Размер потока : 861 Мбайт (86%)
Библиотека кодирования : XviD 65

Аудио
Идентификатор : 1
Формат : AC-3
Формат/Информация : Audio Coding 3
Расширение режима : CM (complete main)
Параметр Endianness формата : Big
Идентификатор кодека : 2000
Продолжительность : 1 ч. 11 м.
Вид битрейта : Постоянный
Битрейт : 256 Кбит/сек
Каналы : 2 канала
Расположение каналов : Front: L R
Частота : 48,0 КГц
Битовая глубина : 16 бит
Метод сжатия : С потерями
Размер потока : 130 Мбайт (13%)
Выравнивание : Разделение по промежуткам
Продолжительность промежутка : 40 мс. (1,00 видеокадр)
Время предзагрузки промежутка : 500 мс.

Общее
Полное имя : Na.belom.katere.2005.DVDRip.MediaClubna.belom.katere.02.2005.DVDRip.MediaClub.avi
Формат : AVI
Формат/Информация : Audio Video Interleave
Размер файла : 997 Мбайт
Продолжительность : 1 ч. 12 м.
Общий поток : 1916 Кбит/сек
Программа кодирования : VirtualDubMod 1.5.10.3 | www.virtualdub-fr.org || (build 2550/release)
Библиотека кодирования : VirtualDubMod build 2550/release

Видео
Идентификатор : 0
Формат : MPEG-4 Visual
Профиль формата : Advanced Simple@L5
Параметр BVOP формата : 2
Параметр QPel формата : Нет
Параметр GMC формата : Без точки перехода
Параметр матрицы формата : Default (MPEG)
Идентификатор кодека : XVID
Идентификатор кодека/Подсказка : XviD
Продолжительность : 1 ч. 12 м.
Битрейт : 1650 Кбит/сек
Ширина : 720 пикселей
Высота : 544 пикселя
Соотношение сторон : 4:3
Частота кадров : 25,000 кадров/сек
Цветовое пространство : YUV
Субдискретизация насыщенности : 4:2:0
Битовая глубина : 8 бит
Тип развёртки : Прогрессивная
Метод сжатия : С потерями
Бит/(Пиксели*Кадры) : 0.168
Размер потока : 858 Мбайт (86%)
Библиотека кодирования : XviD 65

Аудио
Идентификатор : 1
Формат : AC-3
Формат/Информация : Audio Coding 3
Расширение режима : CM (complete main)
Параметр Endianness формата : Big
Идентификатор кодека : 2000
Продолжительность : 1 ч. 12 м.
Вид битрейта : Постоянный
Битрейт : 256 Кбит/сек
Каналы : 2 канала
Расположение каналов : Front: L R
Частота : 48,0 КГц
Битовая глубина : 16 бит
Метод сжатия : С потерями
Размер потока : 133 Мбайт (13%)
Выравнивание : Разделение по промежуткам
Продолжительность промежутка : 40 мс. (1,00 видеокадр)
Время предзагрузки промежутка : 500 мс.


Релиз от:



   Похожие торренты   Торрент   Размер 
В этой теме нет новых непрочитанных сообщений. Мужчина в белом / Men in White (1934) DVDRip | L2

19 | 4

744.12 МБ

В этой теме нет новых непрочитанных сообщений. Мужчина в белом / El Hombre de Blanco (1994) DVDRip | P2

7 | 2

781.6 МБ

В этой теме нет новых непрочитанных сообщений. Леди в белом / Lady in White (1988) DVDRip от Киномагия l A

1 | 2

1.33 ГБ

В этой теме нет новых непрочитанных сообщений. В белом городе / Dans la ville blanche (1983) DVDRip | P2

61 | 25

1.6 ГБ

В этой теме нет новых непрочитанных сообщений. Убийство в Белом доме / Murder at 1600 (1997) DVDRip-AVC

32 | 10

1.37 ГБ

В этой теме нет новых непрочитанных сообщений. Убийство в Белом доме / Murder at 1600 (1997) DVDRip

3 | 2

1.41 ГБ

В этой теме нет новых непрочитанных сообщений. Семейка Брэди в Белом Доме / The Brady Bunch in the White House (2002) DVDRip от Киномагия | P

5 | 21

1.37 ГБ




Вы не можете начинать темы
Вы не можете отвечать на сообщения
Вы не можете редактировать свои сообщения
Вы не можете удалять свои сообщения
Вы не можете добавлять вложения

Перейти:  
Для Мосгорсуда, Роскомнадзора и рекламодателей: mosgorsud-torrent[собачка]yandex.ru
 Вход
ppkBB3cker v.2 © 2008-2014 @ PPK
[ Time : 0.035s | 17 Queries | GZIP : Off ]

Торрент трекер RUTOR.IN, Не можете зайти на rutor.org? Какой новый адрес рутор? Какое зеркало рутор? Не работает rutor.org и зеркала? Тогда наш торрент специально для вас. Rutor.in неофициальное зеркало rutor. В случае если у Вас заблокирован rutor или вдруг Вы не можете на него зайти, то Вы без труда сможете скачать бесплатно и без рекламы последние новинки кино, игр, сериалов и прочего у нас, на Rutor.in. Не нужно использовать прокси, чтобы зайти на рутор, достаточно воспользоваться нашим ресурсом. Все новые фильмы, игры, сериалы, книги и музыка за 2013 и 2014 годы через торрент бесплатно. Скачивайте фильмы в хорошем качестве, игры для пк, xbox, playstation без регистрации. У нас вы найдете новые Зарубежные сериалы и Русские сериалы 2013, 2014, 2015 годов. Оставайтесь с нами, качайте любимые фильмы, игры, сериалы, книги и музыку.