img image001 image001 image001 image001 image001 image001 image001 image001 image001 image001 image001 image001 image001 image001 image001

Planets Sun Sun Sun
Статистика раздачи
Автор: PriZraK | Размер: 1.53 ГБ | Добавлен: 15 фев 2014
Раздают: 7    Качают: 2
Скачать торрент
Скачать торрент
Описание торрента

СообщениеДобавлено: 15 фев 2014 




Информация о фильме
Название: О любви
Год выхода: 2003
Жанр: Мелодрама, драма
Режиссер: Сергей Соловьев
В ролях: Александр Абдулов, Татьяна Друбич, Евгения Крюкова, Екатерина Волкова, Александр Збруев, Кирилл Быркин, Костя Вещунов, Валерий Светлов

О фильме:
Громкий выстрел разрушает тишину летнего утра. Что побудило расстаться с жизнью молодого человека 15-ти лет? Ответить на этот вопрос пытается герой Александра Абдулова, рассказывающий нам историю своей жизни, в которой были и счастливые, и горькие минуты. Измена любимой жены и предательство лучшего друга заставили его покинуть семью, когда Володе, которого он ранее считал своим сыном, было всего около пяти… Последовали годы одиночества, разрубить которые смогло лишь случайное знакомство и несостоявшаяся дуэль. Володя — неизвестно чей сын тем временем вырос. Неловкая интрижка с замужней женщиной, которую мальчик искренне принял за любовь оказалась для него роковой…

Страна: Россия
Студия: Мосфильм
Продолжительность: 01:52:09.400
Перевод: не требуется

Файл
Кодек: h.264
Качество: DVDRip-AVC
Видео: 704x432 (16:9) @ 764x432 (анаморф), 25.000 fps, AVC, ~1508 Kbps, 0.198 bits/pixel
Звук: Русский, 48.0 KHz, AC3, 6 ch, 448 Kbps
Субтитры: нет

Общее
Уникальный идентификатор : 195647248195048531899766818159294225698 (0x93304A150AD67B958F3F28B61A191D22)
Полное имя : D:FilmsO_lubvi.2003.DVDRip-AVC.mkv
Формат : Matroska
Версия формата : Version 4 / Version 2
Размер файла : 1,53 Гбайт
Продолжительность : 1 ч. 52 м.
Общий поток : 1958 Кбит/сек
Дата кодирования : UTC 2014-01-19 14:31:58
Программа кодирования : mkvmerge v6.7.0 ('Back to the Ground') 64bit built on Jan 8 2014 15:10:52
Библиотека кодирования : libebml v1.3.0 + libmatroska v1.4.1

Видео
Идентификатор : 1
Формат : AVC
Формат/Информация : Advanced Video Codec
Профиль формата : High@L4.1
Параметр CABAC формата : Да
Параметр ReFrames формата : 16 кадров
Идентификатор кодека : V_MPEG4/ISO/AVC
Продолжительность : 1 ч. 52 м.
Битрейт : 1508 Кбит/сек
Ширина : 704 пикселя
Высота : 432 пикселя
Соотношение сторон : 16:9
Соотношение сторон в оригинале : 16:9
Режим частоты кадров : Постоянный
Частота кадров : 25,000 кадров/сек
Цветовое пространство : YUV
Субдискретизация насыщенности : 4:2:0
Битовая глубина : 8 бит
Тип развёртки : Прогрессивная
Бит/(Пиксели*Кадры) : 0.198
Размер потока : 1,15 Гбайт (75%)
Библиотека кодирования : x264 core 138 r2358 9e941d1
Настройки программы : cabac=1 / ref=16 / deblock=1:0:0 / analyse=0x3:0x133 / me=umh / subme=10 / psy=1 / psy_rd=1.05:0.10 / mixed_ref=1 / me_range=32 / chroma_me=1 / trellis=2 / 8x8dct=1 / cqm=0 / deadzone=21,11 / fast_pskip=0 / chroma_qp_offset=-3 / threads=8 / lookahead_threads=1 / sliced_threads=0 / nr=0 / decimate=0 / interlaced=0 / bluray_compat=0 / constrained_intra=0 / bframes=7 / b_pyramid=2 / b_adapt=2 / b_bias=0 / direct=3 / weightb=1 / open_gop=0 / weightp=2 / keyint=250 / keyint_min=25 / scenecut=40 / intra_refresh=0 / rc_lookahead=60 / rc=2pass / mbtree=0 / bitrate=1508 / ratetol=1.0 / qcomp=0.60 / qpmin=0 / qpmax=60 / qpstep=4 / cplxblur=20.0 / qblur=0.5 / vbv_maxrate=50000 / vbv_bufsize=62500 / nal_hrd=none / ip_ratio=1.40 / pb_ratio=1.30 / aq=1:1.00
Default : Нет
Forced : Нет
Коэффициенты матрицы : BT.601

Аудио
Идентификатор : 2
Формат : AC-3
Формат/Информация : Audio Coding 3
Расширение режима : CM (complete main)
Параметр Endianness формата : Big
Идентификатор кодека : A_AC3
Продолжительность : 1 ч. 52 м.
Вид битрейта : Постоянный
Битрейт : 448 Кбит/сек
Каналы : 6 каналов
Расположение каналов : Front: L C R, Side: L R, LFE
Частота : 48,0 КГц
Битовая глубина : 16 бит
Метод сжатия : С потерями
Задержка видео : 7 мс.
Размер потока : 359 Мбайт (23%)
Язык : Russian
Default : Да
Forced : Нет

Меню
00:00:00.000 : en:Chapter 01
00:12:38.280 : en:Chapter 02
00:24:33.000 : en:Chapter 03
00:38:54.960 : en:Chapter 04
00:52:19.240 : en:Chapter 05
01:05:46.680 : en:Chapter 06
01:19:23.400 : en:Chapter 07
01:48:27.880 : en:Chapter 08


frame I:888 Avg QP:14.91 size: 49931
frame P:34752 Avg QP:17.46 size: 17815
frame B:132595 Avg QP:19.64 size: 4564


Исходник R5 CP Digital, региональное издание



Релиз от: Temperest



   Похожие торренты   Торрент   Размер 
В этой теме нет новых непрочитанных сообщений. Игрок / Stuey (2003) DVDRip-AVC от Temperest

593 | 40

2 ГБ

В этой теме нет новых непрочитанных сообщений. Клубничка в супермаркете / Jagoda u supermarketu (2003) DVDRip-AVC от Temperest

5 | 1

2.17 ГБ

В этой теме нет новых непрочитанных сообщений. Сердце не с тобой / Il Cuore altrove (2003) DVDRip-AVC от Temperest

35 | 13

1.8 ГБ

В этой теме нет новых непрочитанных сообщений. О любви (2003) DVDRip от Youtracker

8 | 2

1.46 ГБ

В этой теме нет новых непрочитанных сообщений. Все о любви / It's All About Love (2003) DVDRip

0 | 1

2.13 ГБ

В этой теме нет новых непрочитанных сообщений. О любви (2003) DVDRip от ExKinoRay

4 | 2

1.47 ГБ

В этой теме нет новых непрочитанных сообщений. Сад Любви / Garden of Love (2003) DVDRip | A

59 | 11

1.46 ГБ




Вы не можете начинать темы
Вы не можете отвечать на сообщения
Вы не можете редактировать свои сообщения
Вы не можете удалять свои сообщения
Вы не можете добавлять вложения

Перейти:  
Для Мосгорсуда, Роскомнадзора и рекламодателей: mosgorsud-torrent[собачка]yandex.ru
 Вход
ppkBB3cker v.2 © 2008-2014 @ PPK
[ Time : 0.044s | 14 Queries | GZIP : Off ]

Торрент трекер RUTOR.IN, Не можете зайти на rutor.org? Какой новый адрес рутор? Какое зеркало рутор? Не работает rutor.org и зеркала? Тогда наш торрент специально для вас. Rutor.in неофициальное зеркало rutor. В случае если у Вас заблокирован rutor или вдруг Вы не можете на него зайти, то Вы без труда сможете скачать бесплатно и без рекламы последние новинки кино, игр, сериалов и прочего у нас, на Rutor.in. Не нужно использовать прокси, чтобы зайти на рутор, достаточно воспользоваться нашим ресурсом. Все новые фильмы, игры, сериалы, книги и музыка за 2013 и 2014 годы через торрент бесплатно. Скачивайте фильмы в хорошем качестве, игры для пк, xbox, playstation без регистрации. У нас вы найдете новые Зарубежные сериалы и Русские сериалы 2013, 2014, 2015 годов. Оставайтесь с нами, качайте любимые фильмы, игры, сериалы, книги и музыку.