img image001 image001 image001 image001 image001 image001 image001 image001 image001 image001 image001 image001 image001 image001 image001

Planets Sun Sun Sun
Статистика раздачи
Автор: PriZraK | Размер: 744.58 МБ | Добавлен: 15 фев 2014
Раздают: 5    Качают: 7
Скачать торрент
Скачать торрент
Описание торрента

СообщениеДобавлено: 15 фев 2014 


#77
Страна: CCCP
Производство: Студия Горького

Жанр: военный
Год выпуска: 1983
Продолжительность: 01:26:57

Перевод: не требуется
Оригинальная аудиодорожка: русский
Cубтитры: нет

Режиссер: Игорь Николаев

В ролях: Валерий Цветков (...Белобородов), Светлана Коновалова (...Анна Тимофеевна), Борис Морозов (...Суханов), Иван Агафонов (...Докучаев), Виктор Чеботарев (...Родионов), Артур Нищенкин, Наталья Острикова (...Саша), Георгий Шахет (...Коновалов), Анатолий Скорякин (...Петька Фоминых), Леонид Трутнев (...Власов), Валентина Клягина (...Катя), Юрий Веялис, Михаил Кислов, Владимир Шихов, Евгений Красавцев (...комиссар бригады), Юрий Маляров (...Погорелов), Иван Агафонов (...Докучаев), Александр Голобородько (...Кондратенко), Вячеслав Езепов (...Писатель), Владимир Заманский (...Засмолин), Александр Михайлов (...Рокоссовский), Михаил Ульянов (...Жуков), Даниил Нетребин (...Жарков), Алексей Золотницкий (...Витевский)...


Действие фильма происходит в начале декабря 1941 года. Идут бои за село Селиваниха, переходящее из рук в руки. В штаб 78-й стрелковой дивизии полковника Афанасия Белобородова в город Дедовск прибывает Георгий Жуков. Для отражения ожидаемого танкового прорыва противника на этом направлении Жуков передаёт Белобородову 17-ю и 146-ю танковые бригады, а также стрелковую бригаду полковника Засмолина. После получения известия об оставлении деревни Крюково Жуков срочно выезжает на тот участок фронта…





Исходник: DVD5 R5
Тип релиза: DVDRip
Контейнер: AVI

Видео: 688x400 (1,720:1), 25 fps, XviD ~ 1059 kbps avg, 0.154 bit/pixel
Аудио: 48 kHz, MP3 2.0, 128 kbps

Раздача от:
Общее
Полное имя : Den.komandira.divizii.1983.DVDRip-745_[New-team]_by_AVP_Studio.avi
Формат : AVI
Формат/Информация : Audio Video Interleave
Размер файла : 745 Мбайт
Продолжительность : 1 ч. 26 м.
Общий поток : 1197 Кбит/сек
Программа кодирования : VirtualDubModRus 1.5.10.2 (build 2542/release)
Библиотека кодирования : VirtualDubMod build 2542/release

Видео
Идентификатор : 0
Формат : MPEG-4 Visual
Профиль формата : Advanced Simple@L5
Параметр BVOP формата : 1
Параметр QPel формата : Нет
Параметр GMC формата : Без точки перехода
Параметр матрицы формата : Выборочная
Идентификатор кодека : XVID
Идентификатор кодека/Подсказка : XviD
Продолжительность : 1 ч. 26 м.
Битрейт : 1059 Кбит/сек
Ширина : 688 пикселей
Высота : 400 пикселей
Соотношение сторон : 1,720
Частота кадров : 25,000 кадров/сек
Цветовое пространство : YUV
Субдискретизация насыщенности : 4:2:0
Битовая глубина : 8 бит
Тип развёртки : Прогрессивная
Метод сжатия : С потерями
Бит/(Пиксели*Кадры) : 0.154
Размер потока : 659 Мбайт (88%)
Библиотека кодирования : XviD 73

Аудио
Идентификатор : 1
Формат : MPEG Audio
Версия формата : Version 1
Профиль формата : Layer 3
Идентификатор кодека : 55
Идентификатор кодека/Подсказка : MP3
Продолжительность : 1 ч. 26 м.
Вид битрейта : Постоянный
Битрейт : 128 Кбит/сек
Каналы : 2 канала
Частота : 48,0 КГц
Метод сжатия : С потерями
Размер потока : 79,6 Мбайт (11%)
Выравнивание : Соединение по промежуткам
Продолжительность промежутка : 40 мс. (1,00 видеокадр)
Время предзагрузки промежутка : 504 мс.
Библиотека кодирования : LAME3.99r
Настройки программы : -m s -V 4 -q 2 -lowpass 17 -b 128



Фильм по одноимённой документальной повести А. Бека. Премьера состоялась 8 августа 1983 года. В 2008 году фильм выпущен на DVD. Посвящён декабрьским боям 78-й стрелковой дивизии (9-й гвардейской) РККА в 1941 года (Клинско-Солнечногорская наступательная операция), проходившим по Волоколамскому направлению в районе Рождествено и Снегирей под командованием генерал-майора А. П. Белобородова.



   Похожие торренты   Торрент   Размер 
В этой теме нет новых непрочитанных сообщений. День командира дивизии (1983) DVDRip-AVC от New-Team

61 | 12

1.46 ГБ

В этой теме нет новых непрочитанных сообщений. День командира дивизии (1983) DVDRip от New-Team

4 | 2

1.46 ГБ

В этой теме нет новых непрочитанных сообщений. День командира дивизии (1983) DVDRip

11 | 5

1.46 ГБ

В этой теме нет новых непрочитанных сообщений. Петля (1983) DVDRip-AVC от New-Team

8 | 6

2.18 ГБ

В этой теме нет новых непрочитанных сообщений. Непобедимый (1983) DVDRip от New-Team

49 | 36

742.81 МБ

В этой теме нет новых непрочитанных сообщений. Петля (1983) DVDRip от New-Team

21 | 6

2.18 ГБ

В этой теме нет новых непрочитанных сообщений. Торпедоносцы (1983) DVDRip-AVC от New-Team

86 | 6

1.46 ГБ




Вы не можете начинать темы
Вы не можете отвечать на сообщения
Вы не можете редактировать свои сообщения
Вы не можете удалять свои сообщения
Вы не можете добавлять вложения

Перейти:  
Для Мосгорсуда, Роскомнадзора и рекламодателей: mosgorsud-torrent[собачка]yandex.ru
 Вход
ppkBB3cker v.2 © 2008-2014 @ PPK
[ Time : 0.078s | 16 Queries | GZIP : Off ]

Торрент трекер RUTOR.IN, Не можете зайти на rutor.org? Какой новый адрес рутор? Какое зеркало рутор? Не работает rutor.org и зеркала? Тогда наш торрент специально для вас. Rutor.in неофициальное зеркало rutor. В случае если у Вас заблокирован rutor или вдруг Вы не можете на него зайти, то Вы без труда сможете скачать бесплатно и без рекламы последние новинки кино, игр, сериалов и прочего у нас, на Rutor.in. Не нужно использовать прокси, чтобы зайти на рутор, достаточно воспользоваться нашим ресурсом. Все новые фильмы, игры, сериалы, книги и музыка за 2013 и 2014 годы через торрент бесплатно. Скачивайте фильмы в хорошем качестве, игры для пк, xbox, playstation без регистрации. У нас вы найдете новые Зарубежные сериалы и Русские сериалы 2013, 2014, 2015 годов. Оставайтесь с нами, качайте любимые фильмы, игры, сериалы, книги и музыку.
cron