img image001 image001 image001 image001 image001 image001 image001 image001 image001 image001 image001 image001 image001 image001 image001

Planets Sun Sun Sun
Статистика раздачи
Автор: PriZraK | Размер: 1.46 ГБ | Добавлен: 15 фев 2014
Раздают: 58    Качают: 13
Скачать торрент
Скачать торрент
Описание торрента

СообщениеДобавлено: 15 фев 2014 


#77
Страна: CCCP
Производство: Студия Горького

Жанр: военный
Год выпуска: 1983
Продолжительность: 01:26:57

Перевод: не требуется
Оригинальная аудиодорожка: русский
Cубтитры: нет

Режиссер: Игорь Николаев

В ролях: Валерий Цветков (...Белобородов), Светлана Коновалова (...Анна Тимофеевна), Борис Морозов (...Суханов), Иван Агафонов (...Докучаев), Виктор Чеботарев (...Родионов), Артур Нищенкин, Наталья Острикова (...Саша), Георгий Шахет (...Коновалов), Анатолий Скорякин (...Петька Фоминых), Леонид Трутнев (...Власов), Валентина Клягина (...Катя), Юрий Веялис, Михаил Кислов, Владимир Шихов, Евгений Красавцев (...комиссар бригады), Юрий Маляров (...Погорелов), Иван Агафонов (...Докучаев), Александр Голобородько (...Кондратенко), Вячеслав Езепов (...Писатель), Владимир Заманский (...Засмолин), Александр Михайлов (...Рокоссовский), Михаил Ульянов (...Жуков), Даниил Нетребин (...Жарков), Алексей Золотницкий (...Витевский)...


Действие фильма происходит в начале декабря 1941 года. Идут бои за село Селиваниха, переходящее из рук в руки. В штаб 78-й стрелковой дивизии полковника Афанасия Белобородова в город Дедовск прибывает Георгий Жуков. Для отражения ожидаемого танкового прорыва противника на этом направлении Жуков передаёт Белобородову 17-ю и 146-ю танковые бригады, а также стрелковую бригаду полковника Засмолина. После получения известия об оставлении деревни Крюково Жуков срочно выезжает на тот участок фронта…





Исходник: DVD5 R5
Тип релиза: DVDRip-AVC
Контейнер: MKV

Видео: 696->992x572 (1,736:1), 25 fps, H264 ~ 2011 kbps avg, 0.202 bit/pixel
Аудио: 48 kHz, Dolby Digital AC3 5.1, 384 kbps

Раздача от:
Общее
Полное имя : Den.komandira.divizii.1983.DVDRip-AVC_[New-team]_by_AVP_Studio.mkv
Формат : Matroska
Версия формата : Version 2
Размер файла : 1,46 Гбайт
Продолжительность : 1 ч. 26 м.
Общий поток : 2397 Кбит/сек
Дата кодирования : UTC 2014-01-19 23:04:43
Программа кодирования : mkvmerge v6.1.0 ('Old Devil') built on Mar 4 2013 09:10:42
Библиотека кодирования : libebml v1.3.0 + libmatroska v1.4.0

Видео
Идентификатор : 1
Формат : AVC
Формат/Информация : Advanced Video Codec
Профиль формата : High@L4.1
Параметр CABAC формата : Да
Параметр ReFrames формата : 8 кадров
Идентификатор кодека : V_MPEG4/ISO/AVC
Продолжительность : 1 ч. 26 м.
Битрейт : 2011 Кбит/сек
Ширина : 696 пикселей
Высота : 572 пикселя
Соотношение сторон : 1,736
Режим частоты кадров : Постоянный
Частота кадров : 25,000 кадров/сек
Цветовое пространство : YUV
Субдискретизация насыщенности : 4:2:0
Битовая глубина : 8 бит
Тип развёртки : Прогрессивная
Бит/(Пиксели*Кадры) : 0.202
Размер потока : 1,19 Гбайт (82%)
Библиотека кодирования : x264 core 138 r2356 a1d3d17
Настройки программы : cabac=1 / ref=8 / deblock=1:-2:-1 / analyse=0x3:0x113 / me=umh / subme=10 / psy=1 / psy_rd=1.00:0.05 / mixed_ref=1 / me_range=32 / chroma_me=1 / trellis=2 / 8x8dct=1 / cqm=0 / deadzone=21,11 / fast_pskip=0 / chroma_qp_offset=-3 / threads=3 / lookahead_threads=1 / sliced_threads=0 / nr=0 / decimate=0 / interlaced=0 / bluray_compat=0 / constrained_intra=0 / bframes=8 / b_pyramid=2 / b_adapt=2 / b_bias=0 / direct=3 / weightb=1 / open_gop=0 / weightp=2 / keyint=250 / keyint_min=25 / scenecut=40 / intra_refresh=0 / rc=2pass / mbtree=0 / bitrate=2011 / ratetol=1.0 / qcomp=0.60 / qpmin=0 / qpmax=69 / qpstep=4 / cplxblur=20.0 / qblur=0.5 / ip_ratio=1.40 / pb_ratio=1.30 / aq=1:1.00
Default : Да
Forced : Нет

Аудио
Идентификатор : 2
Формат : AC-3
Формат/Информация : Audio Coding 3
Расширение режима : CM (complete main)
Параметр Endianness формата : Big
Идентификатор кодека : A_AC3
Продолжительность : 1 ч. 26 м.
Вид битрейта : Постоянный
Битрейт : 384 Кбит/сек
Каналы : 6 каналов
Расположение каналов : Front: L C R, Side: L R, LFE
Частота : 48,0 КГц
Битовая глубина : 16 бит
Метод сжатия : С потерями
Размер потока : 239 Мбайт (16%)
Default : Да
Forced : Нет



Фильм по одноимённой документальной повести А. Бека. Премьера состоялась 8 августа 1983 года. В 2008 году фильм выпущен на DVD. Посвящён декабрьским боям 78-й стрелковой дивизии (9-й гвардейской) РККА в 1941 года (Клинско-Солнечногорская наступательная операция), проходившим по Волоколамскому направлению в районе Рождествено и Снегирей под командованием генерал-майора А. П. Белобородова.



   Похожие торренты   Торрент   Размер 
В этой теме нет новых непрочитанных сообщений. День командира дивизии (1983) DVDRip от New-Team

3 | 5

744.58 МБ

В этой теме нет новых непрочитанных сообщений. День командира дивизии (1983) DVDRip от New-Team

4 | 3

1.46 ГБ

В этой теме нет новых непрочитанных сообщений. День командира дивизии (1983) DVDRip

11 | 5

1.46 ГБ

В этой теме нет новых непрочитанных сообщений. Торпедоносцы (1983) DVDRip от New-Team

21 | 6

1.45 ГБ

В этой теме нет новых непрочитанных сообщений. Непобедимый (1983) DVDRip-AVC от New-Team

27 | 3

743.74 МБ

В этой теме нет новых непрочитанных сообщений. Непобедимый (1983) DVDRip от New-Team

29 | 34

742.81 МБ

В этой теме нет новых непрочитанных сообщений. Торпедоносцы (1983) DVDRip от New-Team

5 | 12

744.25 МБ




Вы не можете начинать темы
Вы не можете отвечать на сообщения
Вы не можете редактировать свои сообщения
Вы не можете удалять свои сообщения
Вы не можете добавлять вложения

Перейти:  
Для Мосгорсуда, Роскомнадзора и рекламодателей: mosgorsud-torrent[собачка]yandex.ru
 Вход
ppkBB3cker v.2 © 2008-2014 @ PPK
[ Time : 0.040s | 16 Queries | GZIP : Off ]

cron