img image001 image001 image001 image001 image001 image001 image001 image001 image001 image001 image001 image001 image001 image001 image001

Planets Sun Sun Sun
Статистика раздачи
Автор: PriZraK | Размер: 1.32 ГБ | Добавлен: 15 фев 2014
Раздают: 298    Качают: 13
Скачать торрент
Скачать торрент
Описание торрента

СообщениеДобавлено: 15 фев 2014 




Информация о фильме
Название: Близкий враг
Год выхода: 2010
Жанр: драма, криминал
Режиссер: Александр Атанесян
В ролях: Николай Добрынин, Дмитрий Дюжев, Александр Головин, Сергей Греков, Роман Костомаров, Андрей Панин, Нина Подольская, Егор Пазенко, Рамиль Сабитов, Евгения Трофимова, Нелли Уварова

О фильме:
Жизнь молодой счастливой девушки в одночасье превращается в руины. Ее горячо любимого мужа жестоко убивают какие-то подонки. Горе поселяется в душе героини. Что делать и как жить дальше? Эти вопросы она задает себе постоянно. Но в какой-то момент ее вдруг одолевает непреодолимая жажда мести. Девушка решает найти убийц и наказать их.



Страна: Россия
Студия: Ангел-фильм, Pack Shot Boys (PSB) Films, Sony / Monumental Pictures
Продолжительность: 01:25:45
Перевод: Не требуется

Файл
Кодек: h.264
Качество: BDRip-AVC
Видео: 1813 Кбит/с, 1024x440, 24.000 кадр/с
Звук: AC3, 6 ch, 384 Кбит/с

----------------------------------------------------------------------
x264 [info]: frame I:1120 Avg QP:16.91 size: 71172
x264 [info]: frame P:23128 Avg QP:19.57 size: 21488
x264 [info]: frame B:99243 Avg QP:20.13 size: 5923
----------------------------------------------------------------------

Полное имя : Blizkij.vrag.2010.x264.BDRip-AVC.0ptimus.mkv
Формат : Matroska
Версия формата : Version 2
Размер файла : 1,32 Гбайт
Продолжительность : 1 ч. 25 м.
Общий поток : 2195 Кбит/сек
Название фильма : Близкий враг [2010] -=BDRip (AVC) by 0ptimus=-
Дата кодирования : UTC 2014-01-21 07:10:56
Программа кодирования : mkvmerge v6.7.0 ('Back to the Ground') 32bit built on Jan 8 2014 15:03:17
Библиотека кодирования : libebml v1.3.0 + libmatroska v1.4.1

Видео
Идентификатор : 1
Формат : AVC
Формат/Информация : Advanced Video Codec
Профиль формата : High@L4.1
Параметр CABAC формата : Да
Параметр ReFrames формата : 8 кадров
Идентификатор кодека : V_MPEG4/ISO/AVC
Продолжительность : 1 ч. 25 м.
Битрейт : 1813 Кбит/сек
Ширина : 1024 пикселя
Высота : 440 пикселей
Соотношение сторон : 2,35:1
Режим частоты кадров : Постоянный
Частота кадров : 24,000 кадра/сек
Цветовое пространство : YUV
Субдискретизация насыщенности : 4:2:0
Битовая глубина : 8 бит
Тип развёртки : Прогрессивная
Бит/(Пиксели*Кадры) : 0.168
Размер потока : 1,06 Гбайт (81%)
Заголовок : Rip by 0ptimus
Библиотека кодирования : x264 core 133 r2334 a3ac64b
Настройки программы : cabac=1 / ref=8 / deblock=1:-3:-3 / analyse=0x3:0x113 / me=umh / subme=10 / psy=1 / psy_rd=1.00:0.20 / mixed_ref=1 / me_range=32 / chroma_me=1 / trellis=2 / 8x8dct=1 / cqm=0 / deadzone=21,11 / fast_pskip=0 / chroma_qp_offset=-3 / threads=3 / lookahead_threads=1 / sliced_threads=0 / nr=0 / decimate=0 / interlaced=0 / bluray_compat=0 / constrained_intra=0 / bframes=10 / b_pyramid=2 / b_adapt=2 / b_bias=0 / direct=3 / weightb=1 / open_gop=0 / weightp=2 / keyint=240 / keyint_min=24 / scenecut=40 / intra_refresh=0 / rc_lookahead=40 / rc=2pass / mbtree=0 / bitrate=1813 / ratetol=1.0 / qcomp=0.60 / qpmin=0 / qpmax=69 / qpstep=4 / cplxblur=20.0 / qblur=0.5 / vbv_maxrate=50000 / vbv_bufsize=50000 / nal_hrd=none / ip_ratio=1.40 / pb_ratio=1.30 / aq=1:1.00
Язык : Russian
Default : Да
Forced : Да

Аудио
Идентификатор : 2
Формат : AC-3
Формат/Информация : Audio Coding 3
Расширение режима : CM (complete main)
Параметр Endianness формата : Big
Идентификатор кодека : A_AC3
Продолжительность : 1 ч. 25 м.
Вид битрейта : Постоянный
Битрейт : 384 Кбит/сек
Каналы : 6 каналов
Расположение каналов : Front: L C R, Side: L R, LFE
Частота : 48,0 КГц
Битовая глубина : 16 бит
Метод сжатия : С потерями
Размер потока : 236 Мбайт (17%)
Заголовок : AC3 5.1 @ 384 kbps
Язык : Russian
Default : Да
Forced : Да

Меню
00:00:00.000 : :Chapter 01
00:11:08.875 : :Chapter 02
00:16:24.250 : :Chapter 03
00:21:14.458 : :Chapter 04
00:28:02.208 : :Chapter 05
00:33:18.416 : :Chapter 06
00:39:20.875 : :Chapter 07
00:47:21.500 : :Chapter 08
00:56:42.250 : :Chapter 09
01:09:35.166 : :Chapter 10
01:14:49.125 : :Chapter 11
01:20:44.458 : :Chapter 12




Релиз от:



   Похожие торренты   Торрент   Размер 
В этой теме нет новых непрочитанных сообщений. Близкий враг (2010) BDRip 720p от Freeisland

11 | 5

4.37 ГБ

В этой теме нет новых непрочитанных сообщений. Близкий враг / Дорогой враг / Dual Crisis / Dear Enemy / Qin Mi Di Ren (2011) BDRip-AVC от MediaClub | L2

38 | 17

2.32 ГБ

В этой теме нет новых непрочитанных сообщений. Близкий враг / Дорогой враг / Dual Crisis / Dear Enemy / Qin Mi Di Ren (2011) BDRip 1080p от MediaClub | L2

8 | 25

8.45 ГБ

В этой теме нет новых непрочитанных сообщений. Близкий враг / Дорогой враг / Dual Crisis / Dear Enemy / Qin Mi Di Ren (2011) BDRip 720p от MediaClub | L2

37 | 11

4.01 ГБ

В этой теме нет новых непрочитанных сообщений. Близкий враг (2010) DVDRip

62 | 5

745.5 МБ

В этой теме нет новых непрочитанных сообщений. Близкий враг (2010) HDRip

42 | 6

1.37 ГБ

В этой теме нет новых непрочитанных сообщений. Близкий враг (2010) DVD5 vadi

3 | 4

4.37 ГБ




Вы не можете начинать темы
Вы не можете отвечать на сообщения
Вы не можете редактировать свои сообщения
Вы не можете удалять свои сообщения
Вы не можете добавлять вложения

Перейти:  
Для Мосгорсуда, Роскомнадзора и рекламодателей: mosgorsud-torrent[собачка]yandex.ru
 Вход
ppkBB3cker v.2 © 2008-2014 @ PPK
[ Time : 0.033s | 14 Queries | GZIP : Off ]

Торрент трекер RUTOR.IN, Не можете зайти на rutor.org? Какой новый адрес рутор? Какое зеркало рутор? Не работает rutor.org и зеркала? Тогда наш торрент специально для вас. Rutor.in неофициальное зеркало rutor. В случае если у Вас заблокирован rutor или вдруг Вы не можете на него зайти, то Вы без труда сможете скачать бесплатно и без рекламы последние новинки кино, игр, сериалов и прочего у нас, на Rutor.in. Не нужно использовать прокси, чтобы зайти на рутор, достаточно воспользоваться нашим ресурсом. Все новые фильмы, игры, сериалы, книги и музыка за 2013 и 2014 годы через торрент бесплатно. Скачивайте фильмы в хорошем качестве, игры для пк, xbox, playstation без регистрации. У нас вы найдете новые Зарубежные сериалы и Русские сериалы 2013, 2014, 2015 годов. Оставайтесь с нами, качайте любимые фильмы, игры, сериалы, книги и музыку.