img image001 image001 image001 image001 image001 image001 image001 image001 image001 image001 image001 image001 image001 image001 image001

Planets Sun Sun Sun
Статистика раздачи
Автор: PriZraK | Размер: 3.54 ГБ | Добавлен: 15 фев 2014
Раздают: 96    Качают: 13
Скачать торрент
Скачать торрент
Описание торрента

СообщениеДобавлено: 15 фев 2014 




Информация о фильме
Название: Золушка.ру (Золушка.ru)
Год выхода: 2008
Жанр: Комедия, мелодрама
Режиссер: Александр Замятин
В ролях: Евгения Лоза, Иван Николаев, Ники Илиев, Олег Шкловский, Владимир Стержаков, Павел Сметанкин, Михаил Богдасаров, Оксана Ершова, Александр Гордеев, Николай Гусев, Ирина Сидорова, Алексей Фурсенко, Егор Рыбаков, Ия Нинидзе

О фильме:
Начинающий певец из провинциального городка Андрей мечтает о славе, большой сцене, миллионах долларов… И однажды известный продюсер предлагает ему заключить выгодный контракт. Андрей без колебаний соглашается, оставляет любимую девушку Наташу и едет в Москву. Спустя некоторое время девушка узнает из светской хроники, что Андрей помолвлен с «нефтяной принцессой» Еленой. Расстроенной Наташе советуют обратиться в брачное агентство «Золушка», устраивающее браки с миллионерами. Она соглашается и приезжает в Москву для встречи с потенциальными женихами. Но агентство оказывается подставным, Наташу жестоко обманывают и она остается в столице без жениха и без денег. Вернуться в родной город девушка не может, поэтому устраивается на работу официанткой. Но судьба преподносит Наташе подарок. И вскоре ее жизнь меняется — она встречает свою новую любовь…



Страна: Украина
Студия: Стар-Медиа
Продолжительность: 01:43:06
Перевод: Не требуется (Русский)

Файл
Кодек: MPEG-2
Качество: DVD
Видео: PAL, 720x576 (4:3), 4494 Кбит/с, VBR
Звук: Русский, Dolby AC3, 44100 Гц, 192 Кбит/с, 2 канала (Стерео)
Субтитры: Отсутствуют



General
Complete name : Zolushka.ru.2008.DVD-5VTS_05_1.VOB
Format : MPEG-PS
File size : 1 024 MiB
Duration : 29mn 56s
Overall bit rate : 4 781 Kbps

Video
ID : 224 (0xE0)
Format : MPEG Video
Format version : Version 2
Format profile : Main@Main
Format settings, BVOP : Yes
Format settings, Matrix : Custom
Duration : 29mn 56s
Bit rate mode : Variable
Bit rate : 4 494 Kbps
Nominal bit rate : 6 000 Kbps
Width : 720 pixels
Height : 576 pixels
Display aspect ratio : 4:3
Frame rate : 25.000 fps
Standard : PAL
Color space : YUV
Chroma subsampling : 4:2:0
Bit depth : 8 bits
Scan type : Progressive
Compression mode : Lossy
Bits/(Pixel*Frame) : 0.433
Stream size : 962 MiB (94%)

Audio
ID : 189 (0xBD)-128 (0x80)
Format : AC-3
Format/Info : Audio Coding 3
Mode extension : CM (complete main)
Muxing mode : DVD-Video
Duration : 29mn 56s
Bit rate mode : Constant
Bit rate : 192 Kbps
Channel(s) : 2 channels
Channel positions : Front: L R
Sampling rate : 48.0 KHz
Bit depth : 16 bits
Compression mode : Lossy
Stream size : 41.1 MiB (4%)

Menu



   Похожие торренты   Торрент   Размер 
В этой теме нет новых непрочитанных сообщений. Золушка с острова Джерба / Золушка с райского острова (2008) IPTVRip от Files-x

139 | 18

1.37 ГБ

В этой теме нет новых непрочитанных сообщений. Золушка.ru (2008) DVDRip

19 | 8

1.37 ГБ

В этой теме нет новых непрочитанных сообщений. Золушка 4х4. Всё начинается с желаний... (2008) SATRip

73 | 32

1.37 ГБ

В этой теме нет новых непрочитанных сообщений. Золушка 2 / Cinderella II: Dreams Come True / Золушка 3 / Cinderella III (2002-2007) BDRip 720p от Leonardo and Scarabey | iPad

138 | 25

1.45 ГБ

В этой теме нет новых непрочитанных сообщений. Золушка: Непорочный сон (2007) PC

23 | 4

1005.82 МБ

В этой теме нет новых непрочитанных сообщений. Золушка (1947) DVD5

2 | 2

4.36 ГБ

В этой теме нет новых непрочитанных сообщений. Золушка (2003) DVD5

48 | 4

4.35 ГБ




Вы не можете начинать темы
Вы не можете отвечать на сообщения
Вы не можете редактировать свои сообщения
Вы не можете удалять свои сообщения
Вы не можете добавлять вложения

Перейти:  
Для Мосгорсуда, Роскомнадзора и рекламодателей: mosgorsud-torrent[собачка]yandex.ru
 Вход
ppkBB3cker v.2 © 2008-2014 @ PPK
[ Time : 0.041s | 14 Queries | GZIP : Off ]

Торрент трекер RUTOR.IN, Не можете зайти на rutor.org? Какой новый адрес рутор? Какое зеркало рутор? Не работает rutor.org и зеркала? Тогда наш торрент специально для вас. Rutor.in неофициальное зеркало rutor. В случае если у Вас заблокирован rutor или вдруг Вы не можете на него зайти, то Вы без труда сможете скачать бесплатно и без рекламы последние новинки кино, игр, сериалов и прочего у нас, на Rutor.in. Не нужно использовать прокси, чтобы зайти на рутор, достаточно воспользоваться нашим ресурсом. Все новые фильмы, игры, сериалы, книги и музыка за 2013 и 2014 годы через торрент бесплатно. Скачивайте фильмы в хорошем качестве, игры для пк, xbox, playstation без регистрации. У нас вы найдете новые Зарубежные сериалы и Русские сериалы 2013, 2014, 2015 годов. Оставайтесь с нами, качайте любимые фильмы, игры, сериалы, книги и музыку.