img image001 image001 image001 image001 image001 image001 image001 image001 image001 image001 image001 image001 image001 image001 image001

Planets Sun Sun Sun
Статистика раздачи
Автор: PriZraK | Размер: 1.56 ГБ | Добавлен: 15 фев 2014
Раздают: 14    Качают: 2
Скачать торрент
Скачать торрент
Описание торрента

СообщениеДобавлено: 15 фев 2014 




Информация о фильме
Оригинальное название: Кружение в пределах кольцевой
Год выхода: 2006
Жанр: Драма
Режиссер: Рамиль Салахутдинов
В ролях: Дмитрий Воробьёв (II), Светлана Письмиченко, Олег Ковалов, Елена Попова, Дмитрий Воронец, Константин Бурдуков, Борис Войцеховский, Константин Зубрицкий, Сергей Кошонин, Алексей Барабаш

О фильме:
У удачливого бизнесмена из-за интриг конкурента в одночасье рушится бизнес. Все еще можно спасти, надо только просто кивнуть головой и согласиться на устранение человека, ставшего причиной этих бед… В это самое время его жена, не ведающая о проблемах мужа, пытается вызвать у него ревность и сама же страдает… А у некогда популярного телеведущего и его экс-супруги, тоже бывшей телезвезды, дочь оказывается наркоманкой, и эта беда странно объединяет их, вечно ссорящихся… Некие горе-мошенники под видом переписчиков населения проникают в квартиру и пытаются обокрасть человека, недавно потерявшего жену, — а у него и красть-то нечего… Местный дурачок средних лет оплакивает свою рогатку, которая ему нужна, чтобы отгонять ворон… Что может объединить этих таких разных людей, кроме безликого, но такого узнаваемого мегаполиса, где они встречаются — то намеренно, то случайно…


Страна: Россия
Студия: Кинокомпания СЕВЕР
Продолжительность: 01:52:22
Язык: Русский

Файл
Кодек: XviD
Качество: SATRip
Видео: 1782 Кбит/с, 720x416, 25.000 кадр/с
Звук: (АС3, 2 ch, 192 Кбит/с)

Семпл


Общее
Полное имя : Kruzhenie.v.predelax.kolcevoj.2006.SATRip.MediaClub.avi
Формат : AVI
Формат/Информация : Audio Video Interleave
Размер файла : 1,56 Гбайт
Продолжительность : 1 ч. 52 м.
Общий поток : 1984 Кбит/сек
Название фильма : MediaClub
Программа кодирования : VirtualDubMod 1.5.10.2 (build 2540/release)
Библиотека кодирования : VirtualDubMod build 2540/release

Видео
Идентификатор : 0
Формат : MPEG-4 Visual
Профиль формата : Advanced Simple@L5
Параметр BVOP формата : 2
Параметр QPel формата : Нет
Параметр GMC формата : Без точки перехода
Параметр матрицы формата : Default (MPEG)
Идентификатор кодека : XVID
Идентификатор кодека/Подсказка : XviD
Продолжительность : 1 ч. 52 м.
Битрейт : 1782 Кбит/сек
Ширина : 720 пикселей
Высота : 416 пикселей
Соотношение сторон : 1,731
Частота кадров : 25,000 кадров/сек
Цветовое пространство : YUV
Субдискретизация насыщенности : 4:2:0
Битовая глубина : 8 бит
Тип развёртки : Прогрессивная
Метод сжатия : С потерями
Бит/(Пиксели*Кадры) : 0.238
Размер потока : 1,40 Гбайт (90%)
Библиотека кодирования : XviD 1.2.1 (UTC 2008-12-04)

Аудио
Идентификатор : 1
Формат : AC-3
Формат/Информация : Audio Coding 3
Расширение режима : CM (complete main)
Параметр Endianness формата : Big
Идентификатор кодека : 2000
Продолжительность : 1 ч. 52 м.
Вид битрейта : Постоянный
Битрейт : 192 Кбит/сек
Каналы : 2 канала
Расположение каналов : Front: L R
Частота : 48,0 КГц
Битовая глубина : 16 бит
Метод сжатия : С потерями
Размер потока : 154 Мбайт (10%)
Выравнивание : Соединение по промежуткам
Продолжительность промежутка : 40 мс. (1,00 видеокадр)
Время предзагрузки промежутка : 512 мс.


Релиз от:



   Похожие торренты   Торрент   Размер 
В этой теме нет новых непрочитанных сообщений. Кружение в пределах кольцевой (2006) DVB от MediaClub

70 | 40

1.77 ГБ

В этой теме нет новых непрочитанных сообщений. Следствие вели... с Леонидом Каневским [Выпуски 001-032] (2006) SATRip от MediaClub | КПК

342 | 252

5.69 ГБ

В этой теме нет новых непрочитанных сообщений. Футбол.Чемпионат мира 2006.Все голы чемпионата (2006) SATRip

4 | 30

633.91 МБ

В этой теме нет новых непрочитанных сообщений. КВН 2006. Высшая лига. Все игры сезона (2006) SATRip

23 | 11

13.02 ГБ

В этой теме нет новых непрочитанных сообщений. Хоттабыч / }{отт@бь)ч (2006) WEB-DLRip-AVC от MediaClub

134 | 8

1.63 ГБ

В этой теме нет новых непрочитанных сообщений. Остров (2006) DVDRip от MediaClub | КПК

86 | 6

495.33 МБ

В этой теме нет новых непрочитанных сообщений. Мой генерал [01-08 из 08] (2006) DVDRip от MediaClub | КПК

227 | 16

1.58 ГБ




Вы не можете начинать темы
Вы не можете отвечать на сообщения
Вы не можете редактировать свои сообщения
Вы не можете удалять свои сообщения
Вы не можете добавлять вложения

Перейти:  
Для Мосгорсуда, Роскомнадзора и рекламодателей: mosgorsud-torrent[собачка]yandex.ru
 Вход
ppkBB3cker v.2 © 2008-2014 @ PPK
[ Time : 0.752s | 14 Queries | GZIP : Off ]

Торрент трекер RUTOR.IN, Не можете зайти на rutor.org? Какой новый адрес рутор? Какое зеркало рутор? Не работает rutor.org и зеркала? Тогда наш торрент специально для вас. Rutor.in неофициальное зеркало rutor. В случае если у Вас заблокирован rutor или вдруг Вы не можете на него зайти, то Вы без труда сможете скачать бесплатно и без рекламы последние новинки кино, игр, сериалов и прочего у нас, на Rutor.in. Не нужно использовать прокси, чтобы зайти на рутор, достаточно воспользоваться нашим ресурсом. Все новые фильмы, игры, сериалы, книги и музыка за 2013 и 2014 годы через торрент бесплатно. Скачивайте фильмы в хорошем качестве, игры для пк, xbox, playstation без регистрации. У нас вы найдете новые Зарубежные сериалы и Русские сериалы 2013, 2014, 2015 годов. Оставайтесь с нами, качайте любимые фильмы, игры, сериалы, книги и музыку.