img image001 image001 image001 image001 image001 image001 image001 image001 image001 image001 image001 image001 image001 image001 image001

Planets Sun Sun Sun
Статистика раздачи
Автор: PriZraK | Размер: 13.06 ГБ | Добавлен: 15 фев 2014
Раздают: 103    Качают: 14
Скачать торрент
Скачать торрент
Описание торрента

СообщениеДобавлено: 15 фев 2014 


Три мушкетера
«Всё за любовь!»



#77

Страна: Россия
Студия: ООО КиноПоиск
Жанр: драма
Год выпуска: 2013
Продолжительность: 02:03:30

Оригинальная аудиодорожка: русский оригинальный [Лицензия, BD RUS]
Русские субтитры: нет
Режиссер: Сергей Жигунов / Sergey Zhigunov
В ролях: Риналь Мухаметов, Юрий Чурсин, Алексей Макаров, Павел Баршак, Екатерина Вилкова, Анна Старшенбаум, Василий Лановой, Филипп Янковский, Константин Лавроненко, Мария Миронова, Владимир Зайцев, Александр Лыков, Алексей Воробьев, Виктор Раков, Владимир Этуш, Борис Смолкин, Вилле Хаапасало, Екатерина Олькина, Ксения Кутепова, Агата Муцениеце



«Три мушкетера» — это история о юном гасконце Д’Артаньяне, который, не познав всех радостей любви, оказывается втянут в водоворот политических интриг королевского двора Людовика XIII. В роте королевских мушкетеров Де Тревиля он находит себе верных друзей Атоса, Портоса и Арамиса. Мушкетеры настолько поражены кипучей энергией гасконца и его умением находить неприятности, что принимают самое живое участие не только в многочисленных стычках с гвардейцами кардинала, но и в личной судьбе Д’Артаньяна.
Благодаря друзьям Д’Артаньян находит свою первую любовь — Констанцию Бонасье и ввязывается в опаснейшую историю с подвесками Королевы. Тонкий и дальновидный политик кардинал Ришелье и его подручные Рошфор и Миледи обретают в лице Д’Артаньяна опаснейшего врага. Во имя любви он готов на самые отчаянные подвиги. На пути Д’Артаньяна немало опасных соблазнов и искушений. Но он их все преодолеет, не предав своей дружбы и любви!


Тип релиза: BDRip 1080p (исходник: Три мушкетера (2013) Blu-ray 1080p AVC DTS-HD 5.1 [RUS])
Контейнер: MKV
Видео кодек: x264
Аудио кодек: AC3
Видео: AVC / High@L4.1 / 2 pass / 24,000 fps / 1916x1080p (2,40:1) / 14,5 Mbps / 0.292
Аудио: AC3 / 5.1 ch / 640 kbps / Русский оригинальный, BD RUS
Субтитры: нет
Дополнительно: Сохранены оригинальные чаптеры (главы) как на Blu-ray


Раздача от:


АНОНСЫ МОИХ РАЗДАЧ!









Экранизация одноименного романа Александра Дюма.
Георгий Юнгвальд-Хилькевич был против появления еще одной экранизации «Мушкетеров», несмотря на то, что по мотивам этого произведения Дюма к 2013 году было снято 125 мировых экранизаций.
Над фильмом работали каскадеры из Франции, России, Литвы и Чехии. Постановку фехтовальных сцен осуществлял Мишель Карльез («Фанфан-тюльпан» (2003), «Видок» (2001), «Ватель» (2000), «К бою» (1997)). Конными трюками занимался известный отечественный постановщик Игорь Новоселов («Гардемарины, вперед!» (1987), «Королева Марго» (1994), «Антикиллер» (2002)), а в качестве хореографа выступил Гали Абайдулов («Мерри Поппинс, до свидания» (1983), «Русский ковчег» (2002)).
Съемки фильма начались летом 2012 года и проходили как в российских городах Петербурге, Петергофе, Гатчине, Выборге, так и в чешских — Боузов, Перштейн, Оломоуц, Валтица, Доксаны, Кутна-Гора.
Художник по костюмам Татьяна Патрахальцева не только изготовила множество исторических костюмов, но и собрала их со всей Европы, в частности из Испании и Франции.
Благодаря личному участию Венсана Переса, к работе над фильмом удалось привлечь не только Мишеля Карльеза, но и режиссера монтажа Николаса Трембасьевича («Фанфан-тюльпан» (2003), «Перевозчик» (2002)).
Над картиной, помимо отечественных кинематографистов, работали кинематографисты из Чехии, Литвы, Финляндии, Сербии, Франции, Америки. Работой над звуковой частью картины занималась британская студия Pinewood.
Композитор Алексей Шелыгин привлек к работе над фильмом Лондонский симфонической оркестр. Дирижером выступил Ник Ингман. Запись происходила в Лондоне в знаменитой Air Studios, где записывались Pink Floyd, Abba, Duran Duran.
Фильм стал режиссерским дебютом известного артиста Сергея Жигунова.
На протяжении 15 лет Сергей Жигунов мечтал снять фильм о мушкетерах, еще со времен предыдущих экранизацией Дюма — «Королева Марго» (1996) и «Графиня де Монсоро» (1997), когда он выступал в качестве продюсера. По словам режиссера, долгое время его останавливало обещание не снимать о мушкетерах, которое он дал когда-то Михаилу Боярскому.
Изначально, Евгений Цыганов мог сыграть Атоса, Дмитрий Дюжев — Портоса, а Константин Крюков — Арамиса. Миледи могла сыграть Светлана Ходченкова, а на роль отца д’Артаньяна думали пригласить Михаила Боярского.
Архитектурные съемки на натуре проходили за рубежом.
Фильм не является ремейком картины Георгия Юнгвальд-Хилькевича «Д’Артаньян и три мушкетёра» (1979), поскольку в своей основе он не опирается ни на его сценарий, ни на персонажей, ни на музыку.
[*]По словам режиссера, после телерынка в Каннах 21 страна мира планировала купить права на фильм, в том числе Япония, Тайвань и Китай.

x264 [info]: frame I:1133 Avg QP:17.97 size:187810
x264 [info]: frame P:43337 Avg QP:19.63 size: 66946
x264 [info]: frame B:135330 Avg QP:22.38 size: 24694

Общее
Уникальный идентификатор : 189049892910802827918889529075054625814 (0x8E39AF5A74F22AD582F5754F997B4416)
Полное имя : F:Скачка торрентThree.Musketeers.2013.BDRip1080p(Killbrain)_[scarabey.org].mkv
Формат : Matroska
Версия формата : Version 2
Размер файла : 13,1 Гбайт
Продолжительность : 2 ч. 3 м.
Общий поток : 15,1 Мбит/сек
Название фильма : Three Musketeers (2013) by Killbrain
Дата кодирования : UTC 2014-01-25 06:38:46
Программа кодирования : mkvmerge v5.8.0 ('No Sleep / Pillow') built on Sep 2 2012 15:37:04
Библиотека кодирования : libebml v1.2.3 + libmatroska v1.3.0

Видео
Идентификатор : 1
Формат : AVC
Формат/Информация : Advanced Video Codec
Профиль формата : High@L4.1
Параметр CABAC формата : Да
Параметр ReFrames формата : 4 кадра
Идентификатор кодека : V_MPEG4/ISO/AVC
Продолжительность : 2 ч. 3 м.
Битрейт : 14,5 Мбит/сек
Ширина : 1916 пикселей
Высота : 1080 пикселей
Соотношение сторон : 16:9
Режим частоты кадров : Постоянный
Частота кадров : 24,000 кадра/сек
Цветовое пространство : YUV
Субдискретизация насыщенности : 4:2:0
Битовая глубина : 8 бит
Тип развёртки : Прогрессивная
Бит/(Пиксели*Кадры) : 0.292
Размер потока : 12,2 Гбайт (94%)
Заголовок : Three Musketeers (2013)
Библиотека кодирования : x264 core 138 r2358 9e941d1
Настройки программы : cabac=1 / ref=4 / deblock=1:-3:-3 / analyse=0x3:0x113 / me=umh / subme=10 / psy=1 / psy_rd=1.00:0.15 / mixed_ref=1 / me_range=32 / chroma_me=1 / trellis=2 / 8x8dct=1 / cqm=0 / deadzone=21,11 / fast_pskip=0 / chroma_qp_offset=-3 / threads=3 / lookahead_threads=1 / sliced_threads=0 / nr=0 / decimate=0 / interlaced=0 / bluray_compat=0 / constrained_intra=0 / bframes=6 / b_pyramid=2 / b_adapt=2 / b_bias=0 / direct=3 / weightb=1 / open_gop=0 / weightp=2 / keyint=240 / keyint_min=24 / scenecut=40 / intra_refresh=0 / rc_lookahead=60 / rc=2pass / mbtree=0 / bitrate=14500 / ratetol=1.0 / qcomp=0.65 / qpmin=0 / qpmax=69 / qpstep=4 / cplxblur=20.0 / qblur=0.5 / vbv_maxrate=40000 / vbv_bufsize=30000 / nal_hrd=none / ip_ratio=1.40 / pb_ratio=1.30 / aq=1:0.80
Язык : Russian
Default : Да
Forced : Нет

Аудио
Идентификатор : 2
Формат : AC-3
Формат/Информация : Audio Coding 3
Расширение режима : CM (complete main)
Параметр Endianness формата : Big
Идентификатор кодека : A_AC3
Продолжительность : 2 ч. 3 м.
Вид битрейта : Постоянный
Битрейт : 640 Кбит/сек
Каналы : 6 каналов
Расположение каналов : Front: L C R, Side: L R, LFE
Частота : 48,0 КГц
Битовая глубина : 16 бит
Метод сжатия : С потерями
Размер потока : 565 Мбайт (4%)
Заголовок : AC3 / 5.1 ch / 640 kbps / Русский оригинальный, BD RUS
Язык : Russian
Default : Да
Forced : Нет

Меню
00:00:00.000 : :Chapter 01
00:00:23.500 : :Chapter 02
00:10:51.583 : :Chapter 03
00:25:12.208 : :Chapter 04
00:39:43.625 : :Chapter 05
00:53:49.791 : :Chapter 06
01:13:51.791 : :Chapter 07
01:28:38.708 : :Chapter 08
01:44:52.416 : :Chapter 09






   Похожие торренты   Торрент   Размер 
В этой теме нет новых непрочитанных сообщений. Околофутбола (2013) BDRip 1080p от Killbrain and Scarabey | Лицензия

38 | 9

7.87 ГБ

В этой теме нет новых непрочитанных сообщений. Турбо / Turbo (2013) BDRip 1080p от Killbrain and Scarabey | Лицензия

175 | 2

5.44 ГБ

В этой теме нет новых непрочитанных сообщений. Смурфики 2 / The Smurfs 2 (2013) BDRip 1080p от Killbrain and Scarabey | Лицензия

7 | 3

8.15 ГБ

В этой теме нет новых непрочитанных сообщений. Самолеты / Planes (2013) BDRip 1080p от Killbrain and Scarabey | Лицензия

19 | 5

6.57 ГБ

В этой теме нет новых непрочитанных сообщений. Пипец 2 / Kick-Ass 2 (2013) BDRip 1080p от Killbrain and Scarabey | Лицензия

30 | 2

6.39 ГБ

В этой теме нет новых непрочитанных сообщений. Армагеддец / The World's End (2013) BDRip 1080p от Killbrain and Scarabey | Лицензия

6 | 2

8.37 ГБ

В этой теме нет новых непрочитанных сообщений. Майор / Mayor (2013) BDRip 1080p от Killbrain and Scarabey | Лицензия

25 | 4

5.58 ГБ




Вы не можете начинать темы
Вы не можете отвечать на сообщения
Вы не можете редактировать свои сообщения
Вы не можете удалять свои сообщения
Вы не можете добавлять вложения

Перейти:  
Для Мосгорсуда, Роскомнадзора и рекламодателей: mosgorsud-torrent[собачка]yandex.ru
 Вход
ppkBB3cker v.2 © 2008-2014 @ PPK
[ Time : 0.049s | 15 Queries | GZIP : Off ]

cron