img image001 image001 image001 image001 image001 image001 image001 image001 image001 image001 image001 image001 image001 image001 image001

Planets Sun Sun Sun
Статистика раздачи
Автор: PriZraK | Размер: 743.96 МБ | Добавлен: 15 фев 2014
Раздают: 66    Качают: 23
Скачать торрент
Скачать торрент
Описание торрента

СообщениеДобавлено: 15 фев 2014 



АНОНСЫ МОИХ РИПОВ! ЛУЧШИЕ ФИЛЬМЫ ВСЕЙ ПЛАНЕТЫ! Подпишись :)


Остров везения

#77
Год выпуска: 2013
Страна: Россия
Жанр: комедия
Продолжительность: 01:22:25
Перевод: не требуется
Cубтитры: нет

Режиссер: Кирилл Козлов

В ролях: Роман Юнусов, Светлана Ходченкова, Агния Дитковските, Анна Хилькевич, Алексей Чумаков, Татьяна Орлова, Даша Астафьева, Юлия Гришина, Александр Сазонов, Мария Кравцова

Описание: Тихоокеанский лайнер. Полуобнажённые красотки, участвующие в конкурсе красоты. Шампанское и голубой океан… О таком бывшая звезда телевидения, а ныне ведущий дешёвых свадеб, даже и не мечтал. Однако круиз мечты неожиданно прервётся цепью невероятных событий. И наш герой окажется на необитаемом острове, в окружении трёх финалисток конкурса — принципиальной стервы, паникёрши и классической блондинки.

Что делать? Ведь лишившись возможности выиграть вожделенную корону, девушки его наверняка порвут на кусочки… Значит надо продолжать конкурс! Сделав вид, что так задумано, Роман начинает представление. Он убеждает девиц, что на острове понатыканы скрытые камеры и микрофоны, шоу выводится в эфир одного из главных каналов и вся страна теперь следит за финалом конкурса красоты! И всего-то нужно пройти пару испытаний под прицелом вон того ближайшего кокоса… то есть камеры. И пока девушки включаются в соревнование, наш герой ищет путь спасения с острова…



Качество: BDRip [Исходник Blu-Ray 1080p]
Формат: AVI
Видео кодек: XviD
Аудио кодек: MP3
Видео: 640x272 (2.35:1), 24.000 fps, XviD build 73 ~1124 kbps avg, 0.27 bit/pixel
Аудио: 48 kHz, MPEG Layer 3, 2 ch, ~128.00 kbps avg

Раздача от:


D:Мои рипыOstrov_vezeniya.2013.O.BDRip.dexter_lex.avi
General
Complete name : D:Мои рипыOstrov_vezeniya.2013.O.BDRip.dexter_lex.avi
Format : AVI
Format/Info : Audio Video Interleave
File size : 744 MiB
Duration : 1h 22mn
Overall bit rate : 1 262 Kbps
Writing application : VirtualDubMod 1.5.10.3 | www.virtualdub-fr.org || (build 2550/release)
Writing library : VirtualDubMod build 2550/release
Video #0
ID : 0
Format : MPEG-4 Visual
Format profile : Advanced Simple@L5
Format settings, BVOP : 1
Format settings, QPel : No
Format settings, GMC : No warppoints
Format settings, Matrix : Custom
Codec ID : XVID
Codec ID/Hint : XviD
Duration : 1h 22mn
Bit rate : 1 125 Kbps
Width : 640 pixels
Height : 272 pixels
Display aspect ratio : 2.35:1
Frame rate : 24.000 fps
Color space : YUV
Chroma subsampling : 4:2:0
Bit depth : 8 bits
Scan type : Progressive
Compression mode : Lossy
Bits/(Pixel*Frame) : 0.269
Stream size : 663 MiB (89%)
Writing library : XviD 73
Audio #1
ID : 1
Format : MPEG Audio
Format version : Version 1
Format profile : Layer 3
Codec ID : 55
Codec ID/Hint : MP3
Duration : 1h 22mn
Bit rate mode : Constant
Bit rate : 128 Kbps
Channel(s) : 2 channels
Sampling rate : 48.0 KHz
Compression mode : Lossy
Stream size : 75.5 MiB (10%)
Alignment : Aligned on interleaves
Interleave, duration : 42 ms (1.00 video frame)
Interleave, preload duration : 504 ms
Writing library : LAME3.99r
Encoding settings : -m s -V 4 -q 2 -lowpass 17 -b 128




   Похожие торренты   Торрент   Размер 
В этой теме нет новых непрочитанных сообщений. Остров везения (2013) BDRip от New-Team | Лицензия

78 | 6

1.46 ГБ

В этой теме нет новых непрочитанных сообщений. Остров везения (2013) DVD9 R5 от New-Team | лицензия

15 | 6

4.47 ГБ

В этой теме нет новых непрочитанных сообщений. Остров везения (2013) Blu-ray 1080p от New-Team и HDCLUB | лицензия

7 | 5

17.77 ГБ

В этой теме нет новых непрочитанных сообщений. Остров везения (2013) BDRip-AVC от MediaClub | Лицензия

156 | 8

2.05 ГБ

В этой теме нет новых непрочитанных сообщений. Остров везения (2013) BDRip-AVC от HELLYWOOD | Лицензия

217 | 23

1.89 ГБ

В этой теме нет новых непрочитанных сообщений. Остров везения (2013) BDRip 720p | Лицензия

91 | 15

4.12 ГБ

В этой теме нет новых непрочитанных сообщений. Остров везения (2013) BDRip от HQCLUB | Лицензия

2137 | 147

1.45 ГБ




Вы не можете начинать темы
Вы не можете отвечать на сообщения
Вы не можете редактировать свои сообщения
Вы не можете удалять свои сообщения
Вы не можете добавлять вложения

Перейти:  
Для Мосгорсуда, Роскомнадзора и рекламодателей: mosgorsud-torrent[собачка]yandex.ru
 Вход
ppkBB3cker v.2 © 2008-2014 @ PPK
[ Time : 0.234s | 14 Queries | GZIP : Off ]

Торрент трекер RUTOR.IN, Не можете зайти на rutor.org? Какой новый адрес рутор? Какое зеркало рутор? Не работает rutor.org и зеркала? Тогда наш торрент специально для вас. Rutor.in неофициальное зеркало rutor. В случае если у Вас заблокирован rutor или вдруг Вы не можете на него зайти, то Вы без труда сможете скачать бесплатно и без рекламы последние новинки кино, игр, сериалов и прочего у нас, на Rutor.in. Не нужно использовать прокси, чтобы зайти на рутор, достаточно воспользоваться нашим ресурсом. Все новые фильмы, игры, сериалы, книги и музыка за 2013 и 2014 годы через торрент бесплатно. Скачивайте фильмы в хорошем качестве, игры для пк, xbox, playstation без регистрации. У нас вы найдете новые Зарубежные сериалы и Русские сериалы 2013, 2014, 2015 годов. Оставайтесь с нами, качайте любимые фильмы, игры, сериалы, книги и музыку.