img image001 image001 image001 image001 image001 image001 image001 image001 image001 image001 image001 image001 image001 image001 image001

Planets Sun Sun Sun
Статистика раздачи
Автор: PriZraK | Размер: 4.37 ГБ | Добавлен: 15 фев 2014
Раздают: 202    Качают: 21
Скачать торрент
Скачать торрент
Описание торрента

СообщениеДобавлено: 15 фев 2014 




Информация о фильме
Название: Остров везения
Оригинальное название: Остров везения
Год выхода: 2013
Жанр: комедия
Режиссер: Кирилл Козлов
В ролях: Роман Юнусов, Светлана Ходченкова, Агния Дитковските, Анна Хилькевич, Алексей Чумаков, Татьяна Орлова, Даша Астафьева, Юлия Гришина, Александр Сазонов, Мария Кравцова

О фильме:
Тихоокеанский лайнер. Полуобнажённые красотки, участвующие в конкурсе красоты. Шампанское и голубой океан… О таком бывшая звезда телевидения, а ныне ведущий дешёвых свадеб, даже и не мечтал. Однако круиз мечты неожиданно прервётся цепью невероятных событий. И наш герой окажется на необитаемом острове, в окружении трёх финалисток конкурса — принципиальной стервы, паникёрши и классической блондинки.

Что делать? Ведь лишившись возможности выиграть вожделенную корону, девушки его наверняка порвут на кусочки… Значит надо продолжать конкурс! Сделав вид, что так задумано, Роман начинает представление. Он убеждает девиц, что на острове понатыканы скрытые камеры и микрофоны, шоу выводится в эфир одного из главных каналов и вся страна теперь следит за финалом конкурса красоты! И всего-то нужно пройти пару испытаний под прицелом вон того ближайшего кокоса… то есть камеры. И пока девушки включаются в соревнование, наш герой ищет путь спасения с острова…



Выпущено: Россия
Студия: Enjoy Movies
Продолжительность: 01:22:25
Перевод: Не требуется

Файл
Кодек: x264
Качество: BDRip (источник: Blu-ray Disc)
Видео: 1916x816 (2,35:1), 24.000 fps (True24p), 6953 kbps
Аудио #1: AC-3, 6 ch, 640 kbps (Rus)
Субтитры: Нет

Общее
Уникальный идентификатор : 207286867428584909831216974061043207359 (0x9BF1FF9E150F1B38AD16E8E40DB04CBF)
Полное имя : F:Остров.везения.2013.BDRip.1080p.Rus.mkv
Формат : Matroska
Версия формата : Version 2
Размер файла : 4,37 Гбайт
Продолжительность : 1 ч. 22 м.
Общий поток : 7589 Кбит/сек
Название фильма : Остров везения (2013)
Дата кодирования : UTC 2014-01-28 22:25:43
Программа кодирования : mkvmerge v5.8.0 ('No Sleep / Pillow') built on Sep 2 2012 15:37:04
Библиотека кодирования : libebml v1.2.3 + libmatroska v1.3.0
Attachment : Yes

Видео
Идентификатор : 1
Формат : AVC
Формат/Информация : Advanced Video Codec
Профиль формата : High@L4.1
Параметр CABAC формата : Да
Параметр ReFrames формата : 5 кадров
Идентификатор кодека : V_MPEG4/ISO/AVC
Продолжительность : 1 ч. 22 м.
Битрейт : 6953 Кбит/сек
Ширина : 1916 пикселей
Высота : 816 пикселей
Соотношение сторон : 2,35:1
Режим частоты кадров : Постоянный
Частота кадров : 24,000 кадра/сек
Цветовое пространство : YUV
Субдискретизация насыщенности : 4:2:0
Битовая глубина : 8 бит
Тип развёртки : Прогрессивная
Бит/(Пиксели*Кадры) : 0.185
Размер потока : 3,91 Гбайт (90%)
Заголовок : Release by N1NT3NDO
Библиотека кодирования : x264 core 140 r2377 1ca7bb9
Настройки программы : cabac=1 / ref=5 / deblock=1:-3:-3 / analyse=0x3:0x133 / me=umh / subme=10 / psy=1 / psy_rd=1.00:0.00 / mixed_ref=1 / me_range=32 / chroma_me=1 / trellis=2 / 8x8dct=1 / cqm=0 / deadzone=21,11 / fast_pskip=0 / chroma_qp_offset=-2 / threads=12 / lookahead_threads=1 / sliced_threads=0 / nr=0 / decimate=0 / interlaced=0 / bluray_compat=0 / constrained_intra=0 / bframes=6 / b_pyramid=2 / b_adapt=2 / b_bias=0 / direct=3 / weightb=1 / open_gop=0 / weightp=2 / keyint=240 / keyint_min=24 / scenecut=40 / intra_refresh=0 / rc=2pass / mbtree=0 / bitrate=6953 / ratetol=1.0 / qcomp=0.60 / qpmin=0 / qpmax=69 / qpstep=4 / cplxblur=20.0 / qblur=0.5 / ip_ratio=1.40 / pb_ratio=1.30 / aq=1:1.00
Язык : Russian
Default : Да
Forced : Нет

Аудио
Идентификатор : 2
Формат : AC-3
Формат/Информация : Audio Coding 3
Расширение режима : CM (complete main)
Параметр Endianness формата : Big
Идентификатор кодека : A_AC3
Продолжительность : 1 ч. 22 м.
Вид битрейта : Постоянный
Битрейт : 640 Кбит/сек
Каналы : 6 каналов
Расположение каналов : Front: L C R, Side: L R, LFE
Частота : 48,0 КГц
Битовая глубина : 16 бит
Метод сжатия : С потерями
Размер потока : 377 Мбайт (8%)
Заголовок : Russian
Язык : Russian
Default : Да
Forced : Нет

Меню
00:00:00.000 : :Chapter 01
00:09:35.458 : :Chapter 02
00:20:10.041 : :Chapter 03
00:28:56.125 : :Chapter 04
00:41:51.583 : :Chapter 05
00:51:06.625 : :Chapter 06
00:59:31.291 : :Chapter 07
01:08:06.375 : :Chapter 08



   Похожие торренты   Торрент   Размер 
В этой теме нет новых непрочитанных сообщений. Остров везения (2013) BDRemux 1080p от ExKinoRay

8 | 5

17.66 ГБ

В этой теме нет новых непрочитанных сообщений. Остров везения (2013) Blu-ray 1080p от New-Team и HDCLUB | лицензия

7 | 5

17.77 ГБ

В этой теме нет новых непрочитанных сообщений. Остров везения (2013) BDRip-AVC от HELLYWOOD | Лицензия

217 | 23

1.89 ГБ

В этой теме нет новых непрочитанных сообщений. Остров везения (2013) BDRip-AVC от MediaClub | Лицензия

156 | 8

2.05 ГБ

В этой теме нет новых непрочитанных сообщений. Остров везения (2013) BDRip от New-Team | Лицензия

66 | 23

743.96 МБ

В этой теме нет новых непрочитанных сообщений. Остров везения (2013) BDRip от HQCLUB | Лицензия

2137 | 147

1.45 ГБ

В этой теме нет новых непрочитанных сообщений. Остров везения (2013) BDRip от New-Team | Лицензия

78 | 6

1.46 ГБ




Вы не можете начинать темы
Вы не можете отвечать на сообщения
Вы не можете редактировать свои сообщения
Вы не можете удалять свои сообщения
Вы не можете добавлять вложения

Перейти:  
Для Мосгорсуда, Роскомнадзора и рекламодателей: mosgorsud-torrent[собачка]yandex.ru
 Вход
ppkBB3cker v.2 © 2008-2014 @ PPK
[ Time : 135.079s | 16 Queries | GZIP : Off ]
CGP output time : 0.049s | 5 Queries | GZIP : Off

Торрент трекер RUTOR.IN, Не можете зайти на rutor.org? Какой новый адрес рутор? Какое зеркало рутор? Не работает rutor.org и зеркала? Тогда наш торрент специально для вас. Rutor.in неофициальное зеркало rutor. В случае если у Вас заблокирован rutor или вдруг Вы не можете на него зайти, то Вы без труда сможете скачать бесплатно и без рекламы последние новинки кино, игр, сериалов и прочего у нас, на Rutor.in. Не нужно использовать прокси, чтобы зайти на рутор, достаточно воспользоваться нашим ресурсом. Все новые фильмы, игры, сериалы, книги и музыка за 2013 и 2014 годы через торрент бесплатно. Скачивайте фильмы в хорошем качестве, игры для пк, xbox, playstation без регистрации. У нас вы найдете новые Зарубежные сериалы и Русские сериалы 2013, 2014, 2015 годов. Оставайтесь с нами, качайте любимые фильмы, игры, сериалы, книги и музыку.