img image001 image001 image001 image001 image001 image001 image001 image001 image001 image001 image001 image001 image001 image001 image001

Planets Sun Sun Sun
Статистика раздачи
Автор: PriZraK | Размер: 4.37 ГБ | Добавлен: 15 фев 2014
Раздают: 47    Качают: 11
Скачать торрент
Скачать торрент
Описание торрента

СообщениеДобавлено: 15 фев 2014 




Информация о фильме
Оригинальное название: Любовь-морковь 2
Год выхода: 2008
Жанр: мелодрама, комедия
Режиссер: Максим Пежемский
В ролях: Кристина Орбакайте, Гоша Куценко, Денис Парамонов, Алина Булынко, Лидия Вележева, Кирилл Плетнёв, Ольга Орлова, Андрей Ургант, Дарья Дроздовская, Виталий Емашов

Описание: Десять лет назад супруги Голубевы проверили свои чувства на прочность, поменявшись телами. Теперь они — папа Андрей и мама Марина. В их семье растут близнецы, Глеб и Светочка. Жизнь супругов налажена, карьера головокружительна, а день расписан по часам. Они уже плохо помнят, что дети больше любят живых собак, чем искусственных, и что друзья родителей — не лучшая компания в день рожденья. Они забыли, что любовь и внимание дороже денег. Чтобы вернуть все на свои места, нужно опять поменять всех местами — решит доктор Коган и навестит своих старых приятелей Голубевых.

А поутру они проснутся — Глеб и Света в родительской спальне, Андрей и Марина — в детской. Пока «маленькие» Голубевы будут поражать одноклассников и учителей познаниями, их «взрослые» дети едва не поставят крест на карьере родителей и лишат семью крова. Андрею и Марине светит детский дом, а Свете и Глебу — сумасшедший. Но Голубевы не сдаются!

Менеджеры по персоналу узнают, как может справиться с работой рекламного «чебурека» блестящий искусствовед, и стоит ли давать бывшим юристам в руки швабру. Злобная няня сгорит на работе, а риэлтор попробует продать дом на кладбище со скользкими лестницами. Чтобы «прийти в себя», вернуть свой дом и доброе имя Голубевым придется сплотиться, разоблачить злоумышленников, вернуть легендарный бриллиант и найти ключ от банковской ячейки, где деньги лежат…



Страна: Россия
Продолжительность: 01:38:51
Перевод: Не требуется

Файл
Формат: MKV
Качество: BDRip 720p (Источник: Blu-ray Disc)
Видео: 1280x544 (2.35:1), 23.976 fps, 5691 kbps, 0.341 bit/pixel
Аудио: AC-3, 6 ch, 640 kbps (Rus)
Субтитры: нет
Скачать: Семпл


General
Unique ID : 200538400612107785102445740998933319876 (0x96DE4A83D0A7C7179B29CCDCF4B790C4)
Complete name : Love.Carrot.2.2008.BDRip.720p.mkv
Format : Matroska
Format version : Version 2
File size : 4.37 GiB
Duration : 1h 38mn
Overall bit rate : 6 324 Kbps
Encoded date : UTC 2014-01-28 17:34:55
Writing application : mkvmerge v5.6.0 ('Kenya Kane') built on May 27 2012 16:44:04
Writing library : libebml v1.2.3 + libmatroska v1.3.0

Video
ID : 1
Format : AVC
Format/Info : Advanced Video Codec
Format profile : High@L4.1
Format settings, CABAC : Yes
Format settings, ReFrames : 8 frames
Codec ID : V_MPEG4/ISO/AVC
Duration : 1h 38mn
Bit rate : 5 691 Kbps
Width : 1 280 pixels
Height : 544 pixels
Display aspect ratio : 2.35:1
Frame rate mode : Constant
Frame rate : 23.976 fps
Color space : YUV
Chroma subsampling : 4:2:0
Bit depth : 8 bits
Scan type : Progressive
Bits/(Pixel*Frame) : 0.341
Stream size : 3.84 GiB (88%)
Title : Любовь-морковь 2 (2008)
Writing library : x264 core 140 r2377 1ca7bb9
Encoding settings : cabac=1 / ref=8 / deblock=1:-3:-3 / analyse=0x3:0x113 / me=umh / subme=11 / psy=1 / psy_rd=1.00:0.00 / mixed_ref=1 / me_range=32 / chroma_me=1 / trellis=2 / 8x8dct=1 / cqm=0 / deadzone=21,11 / fast_pskip=1 / chroma_qp_offset=-2 / threads=6 / lookahead_threads=1 / sliced_threads=0 / nr=0 / decimate=1 / interlaced=0 / bluray_compat=0 / constrained_intra=0 / bframes=6 / b_pyramid=2 / b_adapt=2 / b_bias=0 / direct=3 / weightb=1 / open_gop=0 / weightp=2 / keyint=240 / keyint_min=23 / scenecut=40 / intra_refresh=0 / rc=2pass / mbtree=0 / bitrate=5691 / ratetol=1.0 / qcomp=0.60 / qpmin=0 / qpmax=69 / qpstep=4 / cplxblur=20.0 / qblur=0.5 / ip_ratio=1.40 / pb_ratio=1.30 / aq=1:1.00
Language : English
Default : Yes
Forced : No
Color primaries : BT.709
Transfer characteristics : BT.709
Matrix coefficients : BT.709

Audio
ID : 2
Format : AC-3
Format/Info : Audio Coding 3
Mode extension : CM (complete main)
Format settings, Endianness : Big
Codec ID : A_AC3
Duration : 1h 38mn
Bit rate mode : Constant
Bit rate : 640 Kbps
Channel count : 6 channels
Channel positions : Front: L C R, Side: L R, LFE
Sampling rate : 48.0 KHz
Bit depth : 16 bits
Compression mode : Lossy
Stream size : 453 MiB (10%)
Title : Оригинальный 5.1
Language : Russian
Default : Yes
Forced : No



   Похожие торренты   Торрент   Размер 
В этой теме нет новых непрочитанных сообщений. Любовь-морковь 2 (2008) BDRip от alldown | КПК

36 | 5

437.42 МБ

В этой теме нет новых непрочитанных сообщений. Любовь-морковь 2 (2008) BDRip от HQ-VIDEO

6 | 3

1.46 ГБ

В этой теме нет новых непрочитанных сообщений. Любовь-морковь 2 (2008) BDRip от HQCLUB

157 | 12

1.45 ГБ

В этой теме нет новых непрочитанных сообщений. Любовь-морковь 2 (2008) BDRip [PROPER] от HELLYWOOD

4 | 6

1.46 ГБ

В этой теме нет новых непрочитанных сообщений. Любовь-морковь 2 (2008) DVDRip

25 | 3

700.18 МБ

В этой теме нет новых непрочитанных сообщений. Любовь-морковь 2 (2008) DVDRip

12 | 5

1.36 ГБ

В этой теме нет новых непрочитанных сообщений. Любовь-морковь 3 (2011) BDRip 720p от Freeisland

9 | 2

4.37 ГБ




Вы не можете начинать темы
Вы не можете отвечать на сообщения
Вы не можете редактировать свои сообщения
Вы не можете удалять свои сообщения
Вы не можете добавлять вложения

Перейти:  
Для Мосгорсуда, Роскомнадзора и рекламодателей: mosgorsud-torrent[собачка]yandex.ru
 Вход
ppkBB3cker v.2 © 2008-2014 @ PPK
[ Time : 0.796s | 16 Queries | GZIP : Off ]

Торрент трекер RUTOR.IN, Не можете зайти на rutor.org? Какой новый адрес рутор? Какое зеркало рутор? Не работает rutor.org и зеркала? Тогда наш торрент специально для вас. Rutor.in неофициальное зеркало rutor. В случае если у Вас заблокирован rutor или вдруг Вы не можете на него зайти, то Вы без труда сможете скачать бесплатно и без рекламы последние новинки кино, игр, сериалов и прочего у нас, на Rutor.in. Не нужно использовать прокси, чтобы зайти на рутор, достаточно воспользоваться нашим ресурсом. Все новые фильмы, игры, сериалы, книги и музыка за 2013 и 2014 годы через торрент бесплатно. Скачивайте фильмы в хорошем качестве, игры для пк, xbox, playstation без регистрации. У нас вы найдете новые Зарубежные сериалы и Русские сериалы 2013, 2014, 2015 годов. Оставайтесь с нами, качайте любимые фильмы, игры, сериалы, книги и музыку.
cron