img image001 image001 image001 image001 image001 image001 image001 image001 image001 image001 image001 image001 image001 image001 image001

Planets Sun Sun Sun
Статистика раздачи
Автор: PriZraK | Размер: 1.46 ГБ | Добавлен: 15 фев 2014
Раздают: 1142    Качают: 55
Скачать торрент
Скачать торрент
Описание торрента

СообщениеДобавлено: 15 фев 2014 




Информация о фильме
Название: Самый лучший фильм
Год выхода: 2008
Жанр: Комедия, приключения, драма, фэнтези, криминал
Язык: Русский
Режиссер: Кирилл Кузин
В ролях: Гарик Харламов, Михаил Галустян, Армен Джигарханян, Елена Великанова, Иосиф Буяновский, Павел Воля, Валерий Баринов, Дмитрий Нагиев, Анастасия Калманович, Павел Козмопулос

О фильме: Гарик Харламов, Михаил Галустян, Армен Джигарханян, Елена Великанова, Иосиф Буяновский, Павел Воля, Валерий Баринов, Дмитрий Нагиев, Анастасия Калманович, Павел Козмопулос



Выпущено: Каропрокат, ТНТ, Россия
Продолжительность: 01:43:15
Перевод: Не требуется

Файл
Качество: DVDRip (Исходник DVD-9)
Видео: XviD, 1562 Кбит/с, 720x400 (16:9), 25 кадр/с
Аудио: Dolby АC3, 448 Кбит/с, 48000 Гц, 6 каналов (5.1)

- Один из авторов сценария фильма, Артур Тумасян, погиб в катастрофе «Армянских авиалиний». Довести картину до конца было делом чести для участников проекта, в память об Артуре.
- Рабочее название фильма — «Очень русское кино».
- Один из персонажей фильма, Ляля, которого сыграл Иосиф Буяновский за весь фильм не произнес ни одного слова.
- Главные герои фильма ездят на машине с точно такими же номерами как в фильме «Бумер» — о248вн 77rus.
Кинонаграды «MTV-Россия», 2008 год
Победитель (1):
Прорыв года (Гарик Харламов)
Номинации (5):
Лучший фильм
Лучшая комедийная роль (Михаил Галустян)
Лучшая экранная команда
Лучший саундтрек— «Самая лучшая песня («Джаниrадари» и Павел Воля)»
Самая зрелищная сцена— «Вадик и Полкило с обескураженным видом рассматривают проституток»
General
Complete name : Samyj.luchshij.film.avi
Format : AVI
Format/Info : Audio Video Interleave
File size : 1.46 GiB
Duration : 1h 43mn
Overall bit rate : 2 019 Kbps
Writing application : VirtualDubMod 1.5.10.2 (build 2540/release)
Writing library : VirtualDubMod build 2540/release

Video
ID : 0
Format : MPEG-4 Visual
Format profile : Advanced Simple@L5
Format settings, BVOP : 1
Format settings, QPel : No
Format settings, GMC : No warppoints
Format settings, Matrix : Default (H.263)
Codec ID : XVID
Codec ID/Hint : XviD
Duration : 1h 43mn
Bit rate : 1 562 Kbps
Width : 720 pixels
Height : 400 pixels
Display aspect ratio : 16:9
Frame rate : 25.000 fps
Color space : YUV
Chroma subsampling : 4:2:0
Bit depth : 8 bits
Scan type : Progressive
Compression mode : Lossy
Bits/(Pixel*Frame) : 0.217
Stream size : 1.13 GiB (77%)
Writing library : XviD 1.2.0.dev47 (UTC 2006-11-01)

Audio
ID : 1
Format : AC-3
Format/Info : Audio Coding 3
Mode extension : CM (complete main)
Codec ID : 2000
Duration : 1h 43mn
Bit rate mode : Constant
Bit rate : 448 Kbps
Channel(s) : 6 channels
Channel positions : Front: L C R, Side: L R, LFE
Sampling rate : 48.0 KHz
Bit depth : 16 bits
Compression mode : Lossy
Stream size : 331 MiB (22%)
Alignment : Split accross interleaves
Interleave, duration : 40 ms (1.00 video frame)
Interleave, preload duration : 500 ms




   Похожие торренты   Торрент   Размер 
В этой теме нет новых непрочитанных сообщений. Фильм, фильм, фильм. Сборник мультфильмов (1968-1995) DVDRip

49 | 8

873.29 МБ

В этой теме нет новых непрочитанных сообщений. Фильм, фильм, фильм (1968) DVDRip от Lukavaya

37 | 10

370.36 МБ

В этой теме нет новых непрочитанных сообщений. Самый лучший фильм (2008) DVDRip

111 | 11

1.37 ГБ

В этой теме нет новых непрочитанных сообщений. Самый лучший фильм 1, 2, 3-ДЭ (2008-2011) DVDRip

41 | 14

2.05 ГБ

В этой теме нет новых непрочитанных сообщений. Разведчики. Фильм 1: Последний бой (2008) DVDRip от PlanetaUA

104 | 25

2.74 ГБ

В этой теме нет новых непрочитанных сообщений. Oбитаемый oстрoв: Фильм первый (2008) DVDRip

1 | 2

1.37 ГБ

В этой теме нет новых непрочитанных сообщений. Фильм с моим участием / A Film with Me in It (2008) DVDRip

0 | 2

1.43 ГБ




Вы не можете начинать темы
Вы не можете отвечать на сообщения
Вы не можете редактировать свои сообщения
Вы не можете удалять свои сообщения
Вы не можете добавлять вложения

Перейти:  
Для Мосгорсуда, Роскомнадзора и рекламодателей: mosgorsud-torrent[собачка]yandex.ru
 Вход
ppkBB3cker v.2 © 2008-2014 @ PPK
[ Time : 0.025s | 14 Queries | GZIP : Off ]

Торрент трекер RUTOR.IN, Не можете зайти на rutor.org? Какой новый адрес рутор? Какое зеркало рутор? Не работает rutor.org и зеркала? Тогда наш торрент специально для вас. Rutor.in неофициальное зеркало rutor. В случае если у Вас заблокирован rutor или вдруг Вы не можете на него зайти, то Вы без труда сможете скачать бесплатно и без рекламы последние новинки кино, игр, сериалов и прочего у нас, на Rutor.in. Не нужно использовать прокси, чтобы зайти на рутор, достаточно воспользоваться нашим ресурсом. Все новые фильмы, игры, сериалы, книги и музыка за 2013 и 2014 годы через торрент бесплатно. Скачивайте фильмы в хорошем качестве, игры для пк, xbox, playstation без регистрации. У нас вы найдете новые Зарубежные сериалы и Русские сериалы 2013, 2014, 2015 годов. Оставайтесь с нами, качайте любимые фильмы, игры, сериалы, книги и музыку.