img image001 image001 image001 image001 image001 image001 image001 image001 image001 image001 image001 image001 image001 image001 image001

Planets Sun Sun Sun
Статистика раздачи
Автор: PriZraK | Размер: 745.09 МБ | Добавлен: 15 фев 2014
Раздают: 145    Качают: 7
Скачать торрент
Скачать торрент
Описание торрента

СообщениеДобавлено: 15 фев 2014 


#77
Страна: СССР
Производство: Мосфильм
Жанр: мюзикл, комедия
Год выпуска: 1983
Продолжительность: 01:28:07

Перевод: Не требуется
Оригинальная аудиодорожка: русский
Cубтитры: нет

Режиссер: Карен Шахназаров

В ролях:
Игорь Скляр, Александр Панкратов-Черный, Николай Аверюшкин, Петр Щербаков, Елена Цыплакова, Евгений Евстигнеев, Леонид Куравлев, Борислав Брондуков, Лариса Долина, Юрий Васильев, Николай Кочегаров, Петр Меркурьев, Юрий Гусев, Ирина Мазур...

Описание:
Советская Россия. Двадцатые годы. Времена НЭПа. Студента Одесского музыкального техникума Костю Иванова увлекает новое направление в музыке — джаз. За это увлечение его, комсомольца, выгоняют из техникума, предлагая на выбор — учёба или любимая музыка. Константин выбирает джаз. Костя хочет создать свой джаз-банд. По объявлению к нему приходят два друга-музыканта — Стёпа и Жора. Стёпа играет на банджо, а Жора — на барабанах. Константин заинтересовывает их джазом и, новоиспечённый джаз-банд начинает репетиции…
В фильме использовано много джазовой музыки в исполнении эстрадного оркестра «Современник» под управлением Анатолия Кролла и архивные записи 20-х годов XX века.
Исполнители песен: Ольга Пирагс, Лариса Долина, Игорь Скляр, Владимир Шевцик.






Исходник: Blu-ray 1080p
Тип релиза: BDRip
Контейнер: AVI

Видео: 640x464 (1.379:1), 23,976 fps, XviD ~ 1047 kbps avg, 0.147 bit/pixel
Аудио: 48 kHz, MP3 2.0, 128 kbps

Раздача от:
Общее
Полное имя : My.iz.dzhaza.1983.BDRip_[New-team]_by_AVP_Studio.avi
Формат : AVI
Формат/Информация : Audio Video Interleave
Размер файла : 745 Мбайт
Продолжительность : 1 ч. 27 м.
Общий поток : 1184 Кбит/сек
Программа кодирования : VirtualDubModRus 1.5.10.2 (build 2542/release)
Библиотека кодирования : VirtualDubMod build 2542/release

Видео
Идентификатор : 0
Формат : MPEG-4 Visual
Профиль формата : Advanced Simple@L5
Параметр BVOP формата : 1
Параметр QPel формата : Нет
Параметр GMC формата : Без точки перехода
Параметр матрицы формата : Выборочная
Идентификатор кодека : XVID
Идентификатор кодека/Подсказка : XviD
Продолжительность : 1 ч. 27 м.
Битрейт : 1047 Кбит/сек
Ширина : 640 пикселей
Высота : 464 пикселя
Соотношение сторон : 1,379
Частота кадров : 23,976 кадра/сек
Цветовое пространство : YUV
Субдискретизация насыщенности : 4:2:0
Битовая глубина : 8 бит
Тип развёртки : Прогрессивная
Метод сжатия : С потерями
Бит/(Пиксели*Кадры) : 0.147
Размер потока : 659 Мбайт (88%)
Библиотека кодирования : XviD 73

Аудио
Идентификатор : 1
Формат : MPEG Audio
Версия формата : Version 1
Профиль формата : Layer 3
Идентификатор кодека : 55
Идентификатор кодека/Подсказка : MP3
Продолжительность : 1 ч. 27 м.
Вид битрейта : Постоянный
Битрейт : 128 Кбит/сек
Каналы : 2 канала
Частота : 48,0 КГц
Метод сжатия : С потерями
Размер потока : 80,5 Мбайт (11%)
Выравнивание : Соединение по промежуткам
Продолжительность промежутка : 42 мс. (1,00 видеокадр)
Время предзагрузки промежутка : 504 мс.
Библиотека кодирования : LAME3.99r
Настройки программы : -m s -V 4 -q 2 -lowpass 17 -b 128



Добряки • Мы из джаза • Зимний вечер в Гаграх • Курьер • Город Зеро • Цареубийца • Сны • Американская дочь • День полнолуния • Яды, или Всемирная история отравлений • Всадник по имени Смерть • Исчезнувшая империя • Палата № 6 • Белый тигр



   Похожие торренты   Торрент   Размер 
В этой теме нет новых непрочитанных сообщений. Мы из джаза (1983) BDRip-AVC от New-Team

20 | 11

1.46 ГБ

В этой теме нет новых непрочитанных сообщений. Мы из джаза (1983) BDRip от HELLYWOOD

2 | 4

1.45 ГБ

В этой теме нет новых непрочитанных сообщений. Мы из джаза (1983) BDRip от HQ-ViDEO

26 | 8

1.46 ГБ

В этой теме нет новых непрочитанных сообщений. Мы из джаза (1983) BDRip от HQCLUB

76 | 12

1.45 ГБ

В этой теме нет новых непрочитанных сообщений. Мы из джаза (1983) BDRip от danis92

1 | 2

1.45 ГБ

В этой теме нет новых непрочитанных сообщений. Мы из джаза (1983) Blu-Ray

2 | 5

18.72 ГБ

В этой теме нет новых непрочитанных сообщений. Мы из джаза (1983) DVDRip

2 | 3

1.37 ГБ




Вы не можете начинать темы
Вы не можете отвечать на сообщения
Вы не можете редактировать свои сообщения
Вы не можете удалять свои сообщения
Вы не можете добавлять вложения

Перейти:  
Для Мосгорсуда, Роскомнадзора и рекламодателей: mosgorsud-torrent[собачка]yandex.ru
 Вход
ppkBB3cker v.2 © 2008-2014 @ PPK
[ Time : 0.089s | 16 Queries | GZIP : Off ]
CGP output time : 0.059s | 5 Queries | GZIP : Off

Торрент трекер RUTOR.IN, Не можете зайти на rutor.org? Какой новый адрес рутор? Какое зеркало рутор? Не работает rutor.org и зеркала? Тогда наш торрент специально для вас. Rutor.in неофициальное зеркало rutor. В случае если у Вас заблокирован rutor или вдруг Вы не можете на него зайти, то Вы без труда сможете скачать бесплатно и без рекламы последние новинки кино, игр, сериалов и прочего у нас, на Rutor.in. Не нужно использовать прокси, чтобы зайти на рутор, достаточно воспользоваться нашим ресурсом. Все новые фильмы, игры, сериалы, книги и музыка за 2013 и 2014 годы через торрент бесплатно. Скачивайте фильмы в хорошем качестве, игры для пк, xbox, playstation без регистрации. У нас вы найдете новые Зарубежные сериалы и Русские сериалы 2013, 2014, 2015 годов. Оставайтесь с нами, качайте любимые фильмы, игры, сериалы, книги и музыку.